Поиск

(Hard Bop, Post-Bop, Saxophone Jazz) The John Klemmer Quartets - Involvement - 2003, FLAC (tracks+.cue), lossless

(Hard Bop, Post-Bop, Saxophone Jazz) The John Klemmer Quartets - Involvement - 2003, FLAC (tracks+.cue), lossless
Треклист:
The John Klemmer Quartets - Involvement
Жанр: Hard Bop, Post-Bop, Saxophone Jazz
Страна-производитель диска: EU
Год издания диска: 2003
Издатель (лейбл): Verve
Номер по каталогу: 076 139-2
Страна: USA Chicago, IL
Аудиокодек: FLAC (*.flac)
Тип рипа: tracks+.cue
Битрейт аудио: lossless
Продолжительность:00:40:12
Источник (релизер): www
Наличие сканов в содержимом раздачи: да
John Klemmer (tenor saxophone)
Jodie Christian (piano)
Sam Thomas (guitar)
Melvin Jackson (bass)
Wilbur Campbell (drums)

01. Stand in the Sun [06:43]
02. My Blues [06:41]
03. You Don't Know What Love Is [06:31]
04. Later with Them Woes [04:10]
05. Passion Food [04:17]
06. How Deep is the Ocean [06:00]
07. Will 'N' Jug [05:48]

 
Лог создания рипа
Exact Audio Copy V1.0 beta 3 from 29. August 2011
EAC extraction logfile from 12. June 2014, 3:41
John Klemmer / Involvement
Used drive : PIONEER DVD-RW DVR-110 Adapter: 1 ID: 1
Read mode : Secure
Utilize accurate stream : Yes
Defeat audio cache : Yes
Make use of C2 pointers : No
Read offset correction : 48
Overread into Lead-In and Lead-Out : No
Fill up missing offset samples with silence : Yes
Delete leading and trailing silent blocks : No
Null samples used in CRC calculations : Yes
Used interface : Native Win32 interface for Win NT & 2000
Gap handling : Appended to previous track
Used output format : User Defined Encoder
Selected bitrate : 1024 kBit/s
Quality : High
Add ID3 tag : No
Command line compressor : C:\Program Files\Exact Audio Copy\FLAC\FLAC.EXE
Additional command line options : -8 -V -T "ARTIST=%artist%" -T "TITLE=%title%" -T "ALBUM=%albumtitle%" -T "DATE=%year%" -T "TRACKNUMBER=%tracknr%" -T "GENRE=%genre%" -T "PERFORMER=%albuminterpret%" -T "COMPOSER=%composer%" %haslyrics%--tag-from-file=LYRICS="%lyricsfile%"%haslyrics% -T "ALBUMARTIST=%albumartist%" -T "DISCNUMBER=%cdnumber%" -T "TOTALDISCS=%totalcds%" -T "TOTALTRACKS=%numtracks%" -T "COMMENT=%comment%" %source% -o %dest%
TOC of the extracted CD
Track | Start | Length | Start sector | End sector
---------------------------------------------------------
1 | 0:00.00 | 6:43.06 | 0 | 30230
2 | 6:43.06 | 6:41.18 | 30231 | 60323
3 | 13:24.24 | 6:31.32 | 60324 | 89680
4 | 19:55.56 | 4:10.68 | 89681 | 108498
5 | 24:06.49 | 4:17.22 | 108499 | 127795
6 | 28:23.71 | 6:00.56 | 127796 | 154851
7 | 34:24.52 | 5:48.20 | 154852 | 180971
Track 1
Filename M:\01 - Stand in the Sun.wav
Pre-gap length 0:00:02.00
Peak level 93.9 %
Extraction speed 4.8 X
Track quality 100.0 %
Test CRC 07EC6926
Copy CRC 07EC6926
Accurately ripped (confidence 9) [E6D36F5C] (AR v2)
Copy OK
Track 2
Filename M:\02 - My Blues.wav
Pre-gap length 0:00:03.93
Peak level 96.3 %
Extraction speed 5.7 X
Track quality 100.0 %
Test CRC A115B648
Copy CRC A115B648
Accurately ripped (confidence 9) [B2548357] (AR v2)
Copy OK
Track 3
Filename M:\03 - You Don't Know What Love Is.wav
Pre-gap length 0:00:03.10
Peak level 93.9 %
Extraction speed 5.8 X
Track quality 99.9 %
Test CRC 35167756
Copy CRC 35167756
Accurately ripped (confidence 9) [4867E41B] (AR v2)
Copy OK
Track 4
Filename M:\04 - Later with Them Woes.wav
Pre-gap length 0:00:02.89
Peak level 92.5 %
Extraction speed 6.4 X
Track quality 100.0 %
Test CRC BB15EDD9
Copy CRC BB15EDD9
Accurately ripped (confidence 9) [73878421] (AR v2)
Copy OK
Track 5
Filename M:\05 - Passion Food.wav
Pre-gap length 0:00:02.81
Peak level 95.1 %
Extraction speed 5.7 X
Track quality 99.9 %
Test CRC F0757248
Copy CRC F0757248
Accurately ripped (confidence 8) [7DB8289D] (AR v2)
Copy OK
Track 6
Filename M:\06 - How Deep is the Ocean.wav
Pre-gap length 0:00:02.66
Peak level 91.7 %
Extraction speed 7.3 X
Track quality 100.0 %
Test CRC B0A945F1
Copy CRC B0A945F1
Accurately ripped (confidence 8) [97F3CE19] (AR v2)
Copy OK
Track 7
Filename M:\07 - Will 'N' Jug.wav
Pre-gap length 0:00:03.06
Peak level 98.5 %
Extraction speed 6.9 X
Track quality 99.9 %
Test CRC E9E0967B
Copy CRC E9E0967B
Accurately ripped (confidence 8) [17533EFD] (AR v2)
Copy OK
All tracks accurately ripped
No errors occurred
End of status report
---- CUETools DB Plugin V2.1.3
[CTDB TOCID: zBTFy1S0hJxXVtw_LqfoV.yqP0s-] found, Submit result: zBTFy1S0hJxXVtw_LqfoV.yqP0s- has been confirmed
[7e606d08] (2/2) Accurately ripped
==== Log checksum 388580684598DEC31BD75CA18509BC035ACC43615EA04CC53DB31DAFA27A4D10 ====
 
Содержание индексной карты (.CUE)
REM GENRE Jazz
REM DATE 1967
REM DISCID 57096C07
REM COMMENT "ExactAudioCopy v1.0b3"
CATALOG 0044007613924
PERFORMER "John Klemmer"
TITLE "Involvement"
FILE "01 - Stand in the Sun.wav" WAVE
TRACK 01 AUDIO
TITLE "Stand in the Sun"
PERFORMER "John Klemmer"
ISRC USGR10300317
INDEX 01 00:00:00
TRACK 02 AUDIO
TITLE "My Blues"
PERFORMER "John Klemmer"
ISRC USMC16715772
INDEX 00 06:39:11
FILE "02 - My Blues.wav" WAVE
INDEX 01 00:00:00
TRACK 03 AUDIO
TITLE "You Don't Know What Love Is"
PERFORMER "John Klemmer"
ISRC USGR10300318
INDEX 00 06:38:10
FILE "03 - You Don't Know What Love Is.wav" WAVE
INDEX 01 00:00:00
TRACK 04 AUDIO
TITLE "Later with Them Woes"
PERFORMER "John Klemmer"
ISRC USGR10300319
INDEX 00 06:28:40
FILE "04 - Later with Them Woes.wav" WAVE
INDEX 01 00:00:00
TRACK 05 AUDIO
TITLE "Passion Food"
PERFORMER "John Klemmer"
ISRC USGR10300320
INDEX 00 04:08:07
FILE "05 - Passion Food.wav" WAVE
INDEX 01 00:00:00
TRACK 06 AUDIO
TITLE "How Deep is the Ocean"
PERFORMER "John Klemmer"
ISRC USGR10300321
INDEX 00 04:14:47
FILE "06 - How Deep is the Ocean.wav" WAVE
INDEX 01 00:00:00
TRACK 07 AUDIO
TITLE "Will 'N' Jug"
PERFORMER "John Klemmer"
ISRC USMC16715774
INDEX 00 05:57:51
FILE "07 - Will 'N' Jug.wav" WAVE
INDEX 01 00:00:00
Приватный:
Нет (DHT включён)
Размер:
242.66 Мб (254,447,354 байт) » файлов: 11
Участники:
0 раздают, 0 качают (0 участников всего)
Внешние участники:
2 раздают, 1 качают (3 участников всего) [ Обновить ]
For power users only: no seeders - write personal message to M0p94ok. Для power user: нет сидеров - пишите в личку M0p94ok.
10:27
143
Нет комментариев. Ваш будет первым!