Поиск

(/ Bop / Soul Jazz /) Sonny Stitt, Booker Ervin, Don Patterson - Soul People - 1993, FLAC (tracks+.cue), lossless

(/ Bop / Soul Jazz /) Sonny Stitt, Booker Ervin, Don Patterson - Soul People - 1993, FLAC (tracks+.cue), lossless
Треклист:
Sonny Stitt, Booker Ervin, Don Patterson / Soul People
Жанр: / Bop / Soul Jazz /
Страна-производитель диска: U.S.A.
Год издания диска: 1993
Издатель (лейбл): Prestige / Fantasy
Номер по каталогу: PRCD-24127-2
Страна: U.S.A.
Аудиокодек: FLAC (*.flac)
Тип рипа: tracks+.cue
Битрейт аудио: lossless
Продолжительность: 61:02
Источник (релизер): ruskaval
Наличие сканов в содержимом раздачи: да
Треклист:
01. Soul People 10:00
02. Sonny's Book 9:50
03. C-Jam Blues 4:12
04. Medley: I Can't Get Started / I'm Afraid The Masquerade Is Over
05. Flyin' Home 5:12
06. Tune-Up 3:12
07. There Will Never Be Another You 5:00
Состав:
Sonny Stitt (alto & tenor saxophones);
Booker Ervin (tenor saxophone);
Don Patterson (organ); Grant Green, Vinnie Corrao (guitar);
Billy James (drums).
 
Audiocheckerlog
Начато: воскресенье, 14. 08. 2011. - 1:14.52
Найдено файлов: 7
1 -===- C:\Sonny Stitt, Booker Ervin, Don Patterson - Soul People (1964-69) {Prestige Remaster 1993}\01 - Soul People.flac
Извлечение успешно выполнено
Заключение: этот трек - CDDA с вероятностью 99%
Временный файл удалён.
2 -===- C:\Sonny Stitt, Booker Ervin, Don Patterson - Soul People (1964-69) {Prestige Remaster 1993}\02 - Sonny's Blues.flac
Извлечение успешно выполнено
Заключение: этот трек - CDDA с вероятностью 100%
Временный файл удалён.
3 -===- C:\Sonny Stitt, Booker Ervin, Don Patterson - Soul People (1964-69) {Prestige Remaster 1993}\03 - C-Jam Blues.flac
Извлечение успешно выполнено
Заключение: этот трек - CDDA с вероятностью 100%
Временный файл удалён.
4 -===- C:\Sonny Stitt, Booker Ervin, Don Patterson - Soul People (1964-69) {Prestige Remaster 1993}\04 - Medley (I can't get started,The masquerade is over).flac
Извлечение успешно выполнено
Заключение: этот трек - CDDA с вероятностью 100%
Временный файл удалён.
5 -===- C:\Sonny Stitt, Booker Ervin, Don Patterson - Soul People (1964-69) {Prestige Remaster 1993}\05 - Flyin' Home.flac
Извлечение успешно выполнено
Заключение: этот трек - CDDA с вероятностью 100%
Временный файл удалён.
6 -===- C:\Sonny Stitt, Booker Ervin, Don Patterson - Soul People (1964-69) {Prestige Remaster 1993}\06 - Tune-Up.flac
Извлечение успешно выполнено
Заключение: этот трек - CDDA с вероятностью 100%
Временный файл удалён.
7 -===- C:\Sonny Stitt, Booker Ervin, Don Patterson - Soul People (1964-69) {Prestige Remaster 1993}\07 - There Will Never Be Another You.flac
Извлечение успешно выполнено
Заключение: этот трек - CDDA с вероятностью 100%
Временный файл удалён.
Завершено: воскресенье, 14. 08. 2011. - 1:45.24 (Время операции: 0:30.31)
 
Лог создания рипа
EAC extraction logfile from 18. June 2006, 11:06 for CD
Sonny Stitt, Booker Ervin, Don Patterson / Soul People
Used drive : PLEXTOR CD-R PX-W5224A Adapter: 0 ID: 1
Read mode : Secure with C2, accurate stream, disable cache
Read offset correction : 30
Overread into Lead-In and Lead-Out : Yes
Used output format : C:\Program Files\EAC\flac.exe (User Defined Encoder)
320 kBit/s
Additional command line options : -V -T "artist=%a" -T "title=%t" -T "album=%g" -T "date=%y" -T "tracknumber=%n" -T "genre=%m" -T "comment= Compliments of Dino" %s
Other options :
Fill up missing offset samples with silence : Yes
Delete leading and trailing silent blocks : No
Installed external ASPI interface
Track 1
Filename L:\01 JAZZ\Sonny Stitt, Booker Ervin, Don Patterson - Soul People\01 - Soul People.wav
Peak level 99.9 %
Track quality 100.0 %
Copy CRC 5126C181
Copy OK
Track 2
Filename L:\01 JAZZ\Sonny Stitt, Booker Ervin, Don Patterson - Soul People\02 - Sonny's Blues.wav
Peak level 99.9 %
Track quality 100.0 %
Copy CRC A5D9C8C5
Copy OK
Track 3
Filename L:\01 JAZZ\Sonny Stitt, Booker Ervin, Don Patterson - Soul People\03 - C-Jam Blues.wav
Peak level 100.0 %
Track quality 100.0 %
Copy CRC 044DB53A
Copy OK
Track 4
Filename L:\01 JAZZ\Sonny Stitt, Booker Ervin, Don Patterson - Soul People\04 - Medley (I can't get started,The masquerade is over).wav
Peak level 100.0 %
Track quality 100.0 %
Copy CRC 4CF8B7F9
Copy OK
Track 5
Filename L:\01 JAZZ\Sonny Stitt, Booker Ervin, Don Patterson - Soul People\05 - Flyin' Home.wav
Peak level 100.0 %
Track quality 100.0 %
Copy CRC 29801563
Copy OK
Track 6
Filename L:\01 JAZZ\Sonny Stitt, Booker Ervin, Don Patterson - Soul People\06 - Tune-Up.wav
Peak level 96.9 %
Track quality 100.0 %
Copy CRC 4BC8E81E
Copy OK
Track 7
Filename L:\01 JAZZ\Sonny Stitt, Booker Ervin, Don Patterson - Soul People\07 - There Will Never Be Another You.wav
Peak level 100.0 %
Track quality 100.0 %
Copy CRC 9F872940
Copy OK
No errors occured
End of status report
 
Содержание индексной карты (.CUE)
REM DATE 1993
REM DISCID 510EBB07
REM COMMENT "ExactAudioCopy v0.95b3"
PERFORMER "Sonny Stitt, Booker Ervin, Don Patterson"
TITLE "Soul People"
FILE "01 - Soul People.wav" WAVE
TRACK 01 AUDIO
TITLE "Soul People"
PERFORMER "Sonny Stitt, Booker Ervin, Don Patterson"
INDEX 01 00:00:00
TRACK 02 AUDIO
TITLE "Sonny's Blues"
PERFORMER "Sonny Stitt, Booker Ervin, Don Patterson"
INDEX 00 09:57:27
FILE "02 - Sonny's Blues.wav" WAVE
INDEX 01 00:00:00
TRACK 03 AUDIO
TITLE "C-Jam Blues"
PERFORMER "Sonny Stitt, Booker Ervin, Don Patterson"
INDEX 00 08:55:42
FILE "03 - C-Jam Blues.wav" WAVE
INDEX 01 00:00:00
TRACK 04 AUDIO
TITLE "Medley (I can't get started/The masquerade is over)"
PERFORMER "Sonny Stitt, Booker Ervin, Don Patterson"
INDEX 00 09:59:25
FILE "04 - Medley (I can't get started,The masquerade is over).wav" WAVE
INDEX 01 00:00:00
TRACK 05 AUDIO
TITLE "Flyin' Home"
PERFORMER "Sonny Stitt, Booker Ervin, Don Patterson"
INDEX 00 11:15:08
FILE "05 - Flyin' Home.wav" WAVE
INDEX 01 00:00:00
TRACK 06 AUDIO
TITLE "Tune-Up"
PERFORMER "Sonny Stitt, Booker Ervin, Don Patterson"
INDEX 00 10:11:65
FILE "06 - Tune-Up.wav" WAVE
INDEX 01 00:00:00
TRACK 07 AUDIO
TITLE "There Will Never Be Another You"
PERFORMER "Sonny Stitt, Booker Ervin, Don Patterson"
INDEX 00 04:24:55
FILE "07 - There Will Never Be Another You.wav" WAVE
INDEX 01 00:00:00
 
Лог проверки качества
[CUETools log; Date: 14.08.2011 00:10; Version: 2.1.1]
[CTDB TOCID: a.ety5wU3bFRP6pCEgB.a.4oX4c-] disk not present in database.
[AccurateRip ID: 00124d10-006cd0b3-510ebb07] found.
Track [ CRC ] Status
01 [5f524554] (0/2) No match
02 [6cca5dcd] (0/2) No match
03 [067e74cb] (0/2) No match
04 [2d559c8d] (0/2) No match
05 [29b521e7] (0/2) No match
06 [dc8b3ea6] (0/2) No match
07 [aab27593] (0/2) No match
Offsetted by 40:
01 [fbad06f7] (2/2) Accurately ripped
02 [662a4d74] (2/2) Accurately ripped
03 [8e238612] (2/2) Accurately ripped
04 [a58a8846] (2/2) Accurately ripped
05 [b92354f0] (2/2) Accurately ripped
06 [1c1b7337] (2/2) Accurately ripped
07 [4608f9ea] (2/2) Accurately ripped
Track Peak [ CRC32 ] [W/O NULL] [ LOG ]
-- 100,0 [3F26BE2F] [9B854ED6]
01 99,9 [5126C181] [44D4679D] CRC32
02 99,9 [A5D9C8C5] [1CEF1183] CRC32
03 100,0 [044DB53A] [D443EBC0] CRC32
04 100,0 [4CF8B7F9] [B1779B48] CRC32
05 100,0 [29801563] [8E51FE95] CRC32
06 96,9 [4BC8E81E] [3AB5FD60] CRC32
07 100,0 [9F872940] [DA1DF26E] CRC32
 
Скриншот спектра частот
в отличии от этого релиза не пиратка
Приватный:
Нет (DHT включён)
Размер:
387.10 Мб (405,908,024 байт) » файлов: 15
Участники:
0 раздают, 1 качают (1 участников всего)
Внешние участники:
7 раздают, 2 качают (9 участников всего) [ Обновить ]
Скорость:
61.46 Кб/c 0/c
No seeders - write personal message to M0p94ok. Нет сидеров - пишите в личку M0p94ok.
10:28
103
Нет комментариев. Ваш будет первым!