Поиск

(Post Bop, Polish Jazz) Leslaw Mozdzer Sextet - Talk To Jesus - 1996, FLAC (image+.cue), lossless

(Post Bop, Polish Jazz) Leslaw Mozdzer Sextet - Talk To Jesus - 1996, FLAC (image+.cue), lossless
Треклист:
Leslaw Mozdzer Sextet / Talk To Jesus
Жанр: Post Bop, Polish Jazz
Страна-производитель диска: Poland
Год издания диска: 1996
Издатель (лейбл): Gowi Records
Номер по каталогу: CDG 35
Страна: Poland
Аудиокодек: FLAC (*.flac)
Тип рипа: image+.cue
Битрейт аудио: lossless
Продолжительность: 72:23
Источник (релизер): ed2k
Наличие сканов в содержимом раздачи: да
Треклист:
1. Sir Lester (Dedicated To Lester Bowie) [9:44]
2. Taniec Mikolaja [8:10]
3. Talk To Jesus [6:42]
4. Margherita [8:33]
5. Let's Do It Tomorrow [7:06]
6. The Foggy Land (Polish Impressions) [11:06]
7. The Room On The Roof [7:00]
8. Express 6:10 [5:36]
9. Facing The Wind [8:21]
 
Лог создания рипа
Exact Audio Copy V1.0 beta 1 from 15. November 2010
EAC extraction logfile from 28. April 2011, 12:14
Leslaw Mozdzer Sextet / Talk To Jesus
Used drive : PLEXTOR DVDR PX-810SA Adapter: 1 ID: 0
Read mode : Secure
Utilize accurate stream : Yes
Defeat audio cache : Yes
Make use of C2 pointers : No
Read offset correction : 48
Overread into Lead-In and Lead-Out : No
Fill up missing offset samples with silence : Yes
Delete leading and trailing silent blocks : No
Null samples used in CRC calculations : Yes
Used interface : Installed external ASPI interface
Used output format : User Defined Encoder
Selected bitrate : 768 kBit/s
Quality : High
Add ID3 tag : No
Command line compressor : E:\Program Files\Exact Audio Copy\FLAC\FLAC.EXE
Additional command line options : --best -V -T "ARTIST=%a" -T "ALBUM=%g" -T "DATE=%y" -T "GENRE=%m" %s -o %d
TOC of the extracted CD
Track | Start | Length | Start sector | End sector
---------------------------------------------------------
1 | 0:00.00 | 9:44.57 | 0 | 43856
2 | 9:44.57 | 8:10.55 | 43857 | 80661
3 | 17:55.37 | 6:42.38 | 80662 | 110849
4 | 24:38.00 | 8:33.05 | 110850 | 149329
5 | 33:11.05 | 7:06.55 | 149330 | 181334
6 | 40:17.60 | 11:06.55 | 181335 | 231339
7 | 51:24.40 | 7:00.55 | 231340 | 262894
8 | 58:25.20 | 5:36.57 | 262895 | 288151
9 | 64:02.02 | 8:21.33 | 288152 | 325759
Range status and errors
Selected range
Filename E:\INCOMING\EAC\Leslaw Mozdzer Sextet - Talk To Jesus.wav
Peak level 100.0 %
Extraction speed 0.8 X
Range quality 100.0 %
Test CRC 37A58C97
Copy CRC 37A58C97
Copy OK
No errors occurred
AccurateRip summary
Track 1 accurately ripped (confidence 2) [7B9D5E1B]
Track 2 accurately ripped (confidence 2) [2BE1E36B]
Track 3 accurately ripped (confidence 2) [8254DF51]
Track 4 accurately ripped (confidence 2) [7C547772]
Track 5 accurately ripped (confidence 2) [98CA7437]
Track 6 accurately ripped (confidence 2) [3B67356D]
Track 7 accurately ripped (confidence 2) [97CE90DC]
Track 8 accurately ripped (confidence 2) [BEA4920F]
Track 9 accurately ripped (confidence 2) [4AD1ABB9]
All tracks accurately ripped
End of status report
==== Log checksum 77FD7EC758C2125B25AA98F70B806717D440A66D105E590DC7FAAAEEEFFCF3AA ====
 
Содержание индексной карты (.CUE)
REM GENRE Jazz
REM DATE 1996
REM DISCID 8A10F709
REM COMMENT "ExactAudioCopy v1.0b1"
CATALOG 0000000000000
PERFORMER "Leslaw Mozdzer Sextet"
TITLE "Talk To Jesus"
FILE "Leslaw Mozdzer Sextet - Talk To Jesus.flac" WAVE
TRACK 01 AUDIO
TITLE "Sir Lester (Dedicated To Lester Bowie)"
PERFORMER "Leslaw Mozdzer Sextet"
INDEX 01 00:00:00
TRACK 02 AUDIO
TITLE "Taniec Mikolaja"
PERFORMER "Leslaw Mozdzer Sextet"
INDEX 00 09:42:72
INDEX 01 09:44:57
TRACK 03 AUDIO
TITLE "Talk To Jesus"
PERFORMER "Leslaw Mozdzer Sextet"
INDEX 00 17:52:61
INDEX 01 17:55:37
TRACK 04 AUDIO
TITLE "Margherita"
PERFORMER "Leslaw Mozdzer Sextet"
INDEX 00 24:35:30
INDEX 01 24:38:00
TRACK 05 AUDIO
TITLE "Let's Do It Tomorrow"
PERFORMER "Leslaw Mozdzer Sextet"
INDEX 00 33:08:73
INDEX 01 33:11:05
TRACK 06 AUDIO
TITLE "The Foggy Land (Polish Impressions)"
PERFORMER "Leslaw Mozdzer Sextet"
INDEX 00 40:15:17
INDEX 01 40:17:60
TRACK 07 AUDIO
TITLE "The Room On The Roof"
PERFORMER "Leslaw Mozdzer Sextet"
INDEX 00 51:21:42
INDEX 01 51:24:40
TRACK 08 AUDIO
TITLE "Express 6:10"
PERFORMER "Leslaw Mozdzer Sextet"
INDEX 00 58:24:08
INDEX 01 58:25:20
TRACK 09 AUDIO
TITLE "Facing The Wind"
PERFORMER "Leslaw Mozdzer Sextet"
INDEX 00 63:59:42
INDEX 01 64:02:02
 
Лог проверки качества
d:\>d:\aucdtect -d/-m0 d:\zzz\*.wav
auCDtect: CD records authenticity detector, version 0.8.2
Copyright (c) 2004 Oleg Berngardt. All rights reserved.
Copyright (c) 2004 Alexander Djourik. All rights reserved.
------------------------------------------------------------
Processing file: [01. Sir Lester (Dedicated To Lester Bowie).wav]
------------------------------------------------------------
This track looks like CDDA with probability 100%
------------------------------------------------------------
Processing file: [02. Taniec Mikolaja.wav]
------------------------------------------------------------
This track looks like CDDA with probability 100%
------------------------------------------------------------
Processing file: [03. Talk To Jesus.wav]
------------------------------------------------------------
This track looks like CDDA with probability 100%
------------------------------------------------------------
Processing file: [04. Margherita.wav]
------------------------------------------------------------
This track looks like CDDA with probability 100%
------------------------------------------------------------
Processing file: [05. Let's Do It Tomorrow.wav]
------------------------------------------------------------
This track looks like CDDA with probability 100%
------------------------------------------------------------
Processing file: [06. The Foggy Land (Polish Impressions).wav]
------------------------------------------------------------
This track looks like CDDA with probability 100%
------------------------------------------------------------
Processing file: [07. The Room On The Roof.wav]
------------------------------------------------------------
This track looks like CDDA with probability 100%
------------------------------------------------------------
Processing file: [08. Express 6-10.wav]
------------------------------------------------------------
This track looks like CDDA with probability 99%
------------------------------------------------------------
Processing file: [09. Facing The Wind.wav]
------------------------------------------------------------
This track looks like CDDA with probability 100%
------------------------------------------------------------
Final Conclusion:
------------------------------------------------------------
These tracks looks like CDDA with probability 100%
Доп. информация:
 
Album Info
Artist: Leslaw Mozdzer Sextet
Album: Talk To Jesus
Released: 1996
Label: Gowi Records
Catalog: CDG 35
Genre: Jazz
Recorded March 11-13, 1996 at S4 Polish Radio Studio by Dariusz Szweryn
Mixed April 10 & 13, 1996 at S4 Polish Radio Studio by Tadeusz Mieczkowski & Leslaw Mozdzer
Digitally mastered April 30, 1996 by Tadeusz Mieczkowski
Photos: Lukasz Gawronski
Piano tuning: Wojciech Kuleczka
Producer: Leslaw Mozdzer
Executive Producers: Zdzislaw Gogulski & Marek Winiarski
 
Состав
Piotr Wojtasik - tp, flh
Adam Pieronczyk - ts, ss
Maciej Sikala - ts
Leslaw Mozdzer - p
Adam Kowalewski - b
Jacek Olter - dr
Приватный:
Нет (DHT включён)
Размер:
400.05 Мб (419,480,155 байт) » файлов: 13
Участники:
0 раздают, 0 качают (0 участников всего)
Внешние участники:
5 раздают, 1 качают (6 участников всего) [ Обновить ]
No seeders - write personal message to M0p94ok. Нет сидеров - пишите в личку M0p94ok.
10:27
116
Нет комментариев. Ваш будет первым!