Поиск

(Hard Bop, Latin Jazz, World Fusion) The Clare Fischer Big Band - Thesaurus - 1968 (2013 Japan Edition), FLAC (image+.cue), lossless

(Hard Bop, Latin Jazz, World Fusion) The Clare Fischer Big Band - Thesaurus - 1968 (2013 Japan Edition), FLAC (image+.cue), lossless
Треклист:
The Clare Fischer Big Band - Thesaurus
Жанр: Hard Bop, Latin Jazz, World Fusion
Страна-производитель диска: Япония
Год издания: 2013
Издатель (лейбл): Atlantic/WEA/Warner
Номер по каталогу: WPCR-27243
Страна: США
Аудиокодек: FLAC (*.flac)
Тип рипа: image+.cue
Битрейт аудио: lossless
Продолжительность: 40:44
Источник (релизер): диск из моей коллекции
Наличие сканов в содержимом раздачи: да
Треклист:
01. The Duke (Fischer) - 5:03
02. Miles Behind (Fischer) - 5:13
03. Calamus (S.Fischer) - 4:54
04. Lennie's Pennies (Tristano) - 5:30
05. 'Twas Only Yesterday (Fischer) - 6:38
06. Bitter Leaf (S.Fischer) - 7:11
07. Upper Manhattan Medical Group (Strayhorn) - 4:18
08. In Memoriam (John F. & Robert F. Kennedy) (Fischer) - 1:57
Состав:
Clare Fischer - piano, Fender-Rhodes electronic piano
Gary Foster - lead alto saxophone
Kim Richmond - alto saxophone
Louis Ciotti, Warne Marsh – tenor saxophone
Bill Perkins - baritone saxophone
John Lowe - bass saxophone
Larry McGuire, Buddy Childers (#1,2,4,5,8), John Audino (#3,6,7), Conte Candoli, Steve Huffsteter, Stewart Fischer - trumpets
Gil Falco, Charley Loper, David Sanchez - trombones
Morris Repass - bass trombone
Chuck Domanico - bass
Larry Bunker - drums
Recorded at T.T.G. Studios, Los Angeles, CA on October 9, 1968.
 
Лог создания рипа
Exact Audio Copy V1.0 beta 3 from 29. August 2011
EAC extraction logfile from 23. October 2013, 22:05
Clare Fischer / Thesaurus
Used drive : ASUS DRW-24B1LT Adapter: 5 ID: 1
Read mode : Secure
Utilize accurate stream : Yes
Defeat audio cache : Yes
Make use of C2 pointers : No
Read offset correction : 6
Overread into Lead-In and Lead-Out : No
Fill up missing offset samples with silence : Yes
Delete leading and trailing silent blocks : No
Null samples used in CRC calculations : Yes
Used interface : Native Win32 interface for Win NT & 2000
Used output format : User Defined Encoder
Selected bitrate : 768 kBit/s
Quality : High
Add ID3 tag : No
Command line compressor : C:\Program Files\Exact Audio Copy\Flac\flac.exe
Additional command line options : -8 -V -T "ARTIST=%artist%" -T "TITLE=%title%" -T "ALBUM=%albumtitle%" -T "DATE=%year%" -T "TRACKNUMBER=%tracknr%" -T "TOTALTRACKS=%numtracks%" -T "GENRE=%genre%" -T "ALBUMARTIST=%albumartist%" -T "ALBUM ARTIST=%albumartist%" -T "COMMENT=EAC Secure Mode, Test & Copy, AccurateRip, FLAC -8" %source%
TOC of the extracted CD
Track | Start | Length | Start sector | End sector
---------------------------------------------------------
1 | 0:00.00 | 5:02.72 | 0 | 22721
2 | 5:02.72 | 5:13.22 | 22722 | 46218
3 | 10:16.19 | 4:54.03 | 46219 | 68271
4 | 15:10.22 | 5:29.69 | 68272 | 93015
5 | 20:40.16 | 6:37.49 | 93016 | 122839
6 | 27:17.65 | 7:11.20 | 122840 | 155184
7 | 34:29.10 | 4:18.35 | 155185 | 174569
8 | 38:47.45 | 1:56.53 | 174570 | 183322
Range status and errors
Selected range
Filename F:\audio\Clare Fischer - Thesaurus.wav
Peak level 100.0 %
Extraction speed 5.3 X
Range quality 100.0 %
Test CRC 485C8EF7
Copy CRC 485C8EF7
Copy OK
No errors occurred
AccurateRip summary
Track 1 not present in database
Track 2 not present in database
Track 3 not present in database
Track 4 not present in database
Track 5 not present in database
Track 6 not present in database
Track 7 not present in database
Track 8 not present in database
None of the tracks are present in the AccurateRip database
End of status report
---- CUETools DB Plugin V2.1.3
[CTDB TOCID: dF46nTNE82vhzpcCZEYnza1bNTc-] disk not present in database, Submit result: dF46nTNE82vhzpcCZEYnza1bNTc- has been uploaded
==== Log checksum A458EE9AE57E03DCDB54E3B503C968F0943AB2CCAF1FD8C1705B8F192A76214F ====
 
Содержание индексной карты (.CUE)
REM GENRE Jazz
REM DATE 1968
REM DISCID 5A098C08
REM COMMENT "ExactAudioCopy v1.0b3"
PERFORMER "Clare Fischer"
TITLE "Thesaurus"
FILE "Clare Fischer - Thesaurus.wav" WAVE
TRACK 01 AUDIO
TITLE "The Duke"
PERFORMER "Clare Fischer"
INDEX 01 00:00:00
TRACK 02 AUDIO
TITLE "Miles Behind"
PERFORMER "Clare Fischer"
INDEX 00 05:01:21
INDEX 01 05:02:72
TRACK 03 AUDIO
TITLE "Calamus"
PERFORMER "Clare Fischer"
INDEX 00 10:14:42
INDEX 01 10:16:19
TRACK 04 AUDIO
TITLE "Lennie's Pennies"
PERFORMER "Clare Fischer"
INDEX 00 15:08:50
INDEX 01 15:10:22
TRACK 05 AUDIO
TITLE "'Twas Only Yesterday"
PERFORMER "Clare Fischer"
INDEX 00 20:38:37
INDEX 01 20:40:16
TRACK 06 AUDIO
TITLE "Bitter Leaf"
PERFORMER "Clare Fischer"
INDEX 00 27:16:02
INDEX 01 27:17:65
TRACK 07 AUDIO
TITLE "Upper Manhattan Medical Group"
PERFORMER "Clare Fischer"
INDEX 00 34:27:22
INDEX 01 34:29:10
TRACK 08 AUDIO
TITLE "In Memoriam (John F. & Robert F. Kennedy)"
PERFORMER "Clare Fischer"
INDEX 00 38:46:03
INDEX 01 38:47:45
 
Отчет CUETools
[CUETools log; Date: 23.10.2013 22:08:57; Version: 2.1.4]
[CTDB TOCID: dF46nTNE82vhzpcCZEYnza1bNTc-] found.
Track | CTDB Status
1 | (1/1) Accurately ripped
2 | (1/1) Accurately ripped
3 | (1/1) Accurately ripped
4 | (1/1) Accurately ripped
5 | (1/1) Accurately ripped
6 | (1/1) Accurately ripped
7 | (1/1) Accurately ripped
8 | (1/1) Accurately ripped
[AccurateRip ID: 000d3763-00586148-5a098c08] disk not present in database.
Track Peak [ CRC32 ] [W/O NULL] [ LOG ]
-- 100,0 [485C8EF7] [31BC9579] CRC32
01 100,0 [509A3D3A] [DB125E7D]
02 100,0 [F37E1768] [70A324EC]
03 100,0 [1CBC0AEE] [42C5EB2A]
04 100,0 [DD6E1492] [79E06B54]
05 100,0 [0164BB57] [4CB3DC0F]
06 100,0 [751D585A] [CC73948A]
07 100,0 [CB6620AA] [97ED7CAF]
08 99,4 [05F2B3E8] [501696A6]
 
Review by Ken Dryden
Clare Fischer's big-band release was only briefly available as an Atlantic LP but it has finally reappeared in the CD era after a brief appearance under another title on LP some ten years after its first release. Fischer's potent originals and first-rate arrangements bring out the best in his musicians, which include Warne Marsh and Conte Candoli (featured on "Miles Behind"), Bill Perkins on a work trumpeter Stewart Fischer specially composed for the baritone saxophonist ("Calamus"), and alto saxophonist Gary Foster featured with Marsh on Lennie Tristano's "Lennie's Pennies." A well-conceived chart of Billy Strayhorn's "Upper Manhattan Medical Group" swings mightily. The leader even makes a rare appearance on alto sax in the brief "In Memoriam" dedicated to the assassinated Kennedy brothers.
13:35
316
Нет комментариев. Ваш будет первым!