Поиск

(Hard Bop, Latin Jazz, World Fusion) Clare Fischer - Manteca! - 1966 (2013 Japan Edition), FLAC (image+.cue), lossless

(Hard Bop, Latin Jazz, World Fusion) Clare Fischer - Manteca! - 1966 (2013 Japan Edition), FLAC (image+.cue), lossless
Треклист:
Clare Fischer - Manteca!
Жанр: Hard Bop, Latin Jazz, World Fusion
Страна-производитель диска: Япония
Год издания: 2013
Издатель (лейбл): Pacific Jazz/Universal
Номер по каталогу: TOCJ-66626
Страна: США
Аудиокодек: FLAC (*.flac)
Тип рипа: image+.cue
Битрейт аудио: lossless
Продолжительность: 30:37
Источник (релизер): диск из моей коллекции
Наличие сканов в содержимом раздачи: да
Треклист:
01. Manteca (Fuller-Pozo-Gillespie) - 3:43
02. El Toro (Santamaria) - 3:37
03. Morning (Fischer) - 4:08
04. Afro Blue (Santamaria) - 3:32
05. Favela (Jobim) - 3:49
06. Marguerite (Suegra) (Fischer) - 2:35
07. Dulzura (Fischer) - 3:17
08. Sway (Quien Sera) (Ruiz-Gimbel) - 2:43
09. Negrita (Calzado) - 3:12
Состав:
Conte Candoli, Bobby Bryant, Don Smith, A.D. Brisbois - trumpets (#1-4)
Gil Falco, Bob Edmondson - trombones (#1-4)
Ernie Tack - bass trombone (#1-4)
Clare Fischer - piano, organ
Ralph Pena (#1-4), Richard West (#5-9) - bass
Nicholas "Cuco" Martinez - timbales
Adolfo "Chino" Valdes, Carlos Vidal - conga
Rudy Calzado - cencero, guiro
Recorded in 1966.
 
Лог создания рипа
Exact Audio Copy V1.0 beta 3 from 29. August 2011
EAC extraction logfile from 23. October 2013, 21:35
Clare Fischer / Manteca!
Used drive : ASUS DRW-24B1LT Adapter: 5 ID: 1
Read mode : Secure
Utilize accurate stream : Yes
Defeat audio cache : Yes
Make use of C2 pointers : No
Read offset correction : 6
Overread into Lead-In and Lead-Out : No
Fill up missing offset samples with silence : Yes
Delete leading and trailing silent blocks : No
Null samples used in CRC calculations : Yes
Used interface : Native Win32 interface for Win NT & 2000
Used output format : User Defined Encoder
Selected bitrate : 768 kBit/s
Quality : High
Add ID3 tag : No
Command line compressor : C:\Program Files\Exact Audio Copy\Flac\flac.exe
Additional command line options : -8 -V -T "ARTIST=%artist%" -T "TITLE=%title%" -T "ALBUM=%albumtitle%" -T "DATE=%year%" -T "TRACKNUMBER=%tracknr%" -T "TOTALTRACKS=%numtracks%" -T "GENRE=%genre%" -T "ALBUMARTIST=%albumartist%" -T "ALBUM ARTIST=%albumartist%" -T "COMMENT=EAC Secure Mode, Test & Copy, AccurateRip, FLAC -8" %source%
TOC of the extracted CD
Track | Start | Length | Start sector | End sector
---------------------------------------------------------
1 | 0:00.00 | 3:43.20 | 0 | 16744
2 | 3:43.20 | 3:37.02 | 16745 | 33021
3 | 7:20.22 | 4:07.44 | 33022 | 51590
4 | 11:27.66 | 3:32.21 | 51591 | 67511
5 | 15:00.12 | 3:49.34 | 67512 | 84720
6 | 18:49.46 | 2:34.64 | 84721 | 96334
7 | 21:24.35 | 3:16.74 | 96335 | 111108
8 | 24:41.34 | 2:43.13 | 111109 | 123346
9 | 27:24.47 | 3:12.27 | 123347 | 137773
Range status and errors
Selected range
Filename F:\audio\Clare Fischer - Manteca!.wav
Peak level 100.0 %
Extraction speed 2.5 X
Range quality 99.9 %
Test CRC 14FAEE35
Copy CRC 14FAEE35
Copy OK
No errors occurred
AccurateRip summary
Track 1 not present in database
Track 2 not present in database
Track 3 not present in database
Track 4 not present in database
Track 5 not present in database
Track 6 not present in database
Track 7 not present in database
Track 8 not present in database
Track 9 not present in database
None of the tracks are present in the AccurateRip database
End of status report
---- CUETools DB Plugin V2.1.3
[CTDB TOCID: mlbAx5WOzEwiEkWK3MBoAqFKdGw-] disk not present in database, Submit result: mlbAx5WOzEwiEkWK3MBoAqFKdGw- has been uploaded
==== Log checksum 3E1D32A525A5D1CEFE699C21421F1924DFD43DAA27878A10FFBBDF7EDCBB1637 ====
 
Содержание индексной карты (.CUE)
REM GENRE Jazz
REM DATE 1966
REM DISCID 6F072C09
REM COMMENT "ExactAudioCopy v1.0b3"
PERFORMER "Clare Fischer"
TITLE "Manteca!"
FILE "Clare Fischer - Manteca!.wav" WAVE
TRACK 01 AUDIO
TITLE "Manteca"
PERFORMER "Clare Fischer"
INDEX 01 00:00:00
TRACK 02 AUDIO
TITLE "El Toro"
PERFORMER "Clare Fischer"
INDEX 00 03:40:67
INDEX 01 03:43:20
TRACK 03 AUDIO
TITLE "Morning"
PERFORMER "Clare Fischer"
INDEX 00 07:17:69
INDEX 01 07:20:22
TRACK 04 AUDIO
TITLE "Afro Blue"
PERFORMER "Clare Fischer"
INDEX 00 11:25:38
INDEX 01 11:27:66
TRACK 05 AUDIO
TITLE "Favela"
PERFORMER "Clare Fischer"
INDEX 00 14:57:59
INDEX 01 15:00:12
TRACK 06 AUDIO
TITLE "Marguerite (Suegra)"
PERFORMER "Clare Fischer"
INDEX 00 18:47:18
INDEX 01 18:49:46
TRACK 07 AUDIO
TITLE "Dulzura"
PERFORMER "Clare Fischer"
INDEX 00 21:22:07
INDEX 01 21:24:35
TRACK 08 AUDIO
TITLE "Sway (Quien Sera)"
PERFORMER "Clare Fischer"
INDEX 00 24:39:06
INDEX 01 24:41:34
TRACK 09 AUDIO
TITLE "Negrita"
PERFORMER "Clare Fischer"
INDEX 00 27:22:19
INDEX 01 27:24:47
 
Отчет CUETools
[CUETools log; Date: 23.10.2013 22:08:38; Version: 2.1.4]
[CTDB TOCID: mlbAx5WOzEwiEkWK3MBoAqFKdGw-] found.
Track | CTDB Status
1 | (1/1) Accurately ripped
2 | (1/1) Accurately ripped
3 | (1/1) Accurately ripped
4 | (1/1) Accurately ripped
5 | (1/1) Accurately ripped
6 | (1/1) Accurately ripped
7 | (1/1) Accurately ripped
8 | (1/1) Accurately ripped
9 | (1/1) Accurately ripped
[AccurateRip ID: 000b04ec-004fe4af-6f072c09] disk not present in database.
Track Peak [ CRC32 ] [W/O NULL] [ LOG ]
-- 100,0 [14FAEE35] [A2375F86] CRC32
01 97,7 [25B235EB] [022C5D33]
02 97,1 [F6DE2B8F] [C7DEF673]
03 100,0 [41991ABF] [41B6C773]
04 99,0 [93160E15] [5D265C88]
05 96,5 [75F56A9C] [82D9FAC4]
06 98,0 [3553583A] [F8672AB5]
07 97,6 [BB0A5E55] [227A447F]
08 94,9 [A2B69CF8] [78FA5F2A]
09 98,7 [5CB0B2D8] [5561A402]
 
Об альбоме (сборнике)
One of our favorite albums ever from the great Clare Fischer – and one of the first to really show his special talents at their best! The sound here is a wonderful blend of jazz, Latin, and Brazilian modes – and in addition to piano, Clare plays plenty of organ on the date – which bristles with this cool, clear sound amidst larger backdrops that have a very driving feel! There's lots of percussive energy at the bottom of the bigger group tracks – thanks to work from Latin percussionists Carlos Vidal, Cuco Martinez, Chino Valdes, and Rudy Calzado – and some of the other cuts feature a smaller group, but still with lots of great percussion! Clare's organ has this feel that's very different than the usual Hammond jazz style – and really sounds great throughout – on a batch of tracks that includes a key reading of his classic "Morning" – plus the cuts "Manteca", "Favela", "Afro Blue", "Dulzura", and "Negrita".
13:34
300
Нет комментариев. Ваш будет первым!