Поиск

(Bossa Nova, Piano Jazz, Vocal Jazz) Antoine Herve - La Lecon de Jazz: Antonio Carlos Jobim - 2011, FLAC (tracks+.cue), lossless

(Bossa Nova, Piano Jazz, Vocal Jazz) Antoine Herve - La Lecon de Jazz: Antonio Carlos Jobim - 2011, FLAC (tracks+.cue), lossless
Треклист:
♦ Antoine Herve - La Lecon de Jazz: Antonio Carlos Jobim ♦
Жанр: Bossa Nova, Piano Jazz, Vocal Jazz
Год издания: 2011
Издатель (лейбл): RV Productions / Harmonia Mundi
Номер по каталогу: RVC/D 111
Аудиокодек: FLAC (*.flac)
Тип рипа: tracks+.cue
Битрейт аудио: lossless
Продолжительность: 00:59:34
Источник (релизер): ruskaval
Наличие сканов в содержимом раздачи: да
Треклист:
01. Samba do Aviao [03:24]
02. Desafinado [04:35]
03. So Tinha de ser com Voce [03:47]
04. Chega da Saudade [04:07]
05. Insensatez [06:35]
06. Samba de Uma Nota So [03:18]
07. Din-Di [05:56]
08. So Danco Samba [02:50]
09. Inutil Paysagem [04:36]
10. Agua de Beber [05:36]
11. Corcovado [06:23]
12. Luiza [03:31]
13. Eu se Que Vou te Amar [04:49]
 
Лог создания рипа
Exact Audio Copy V1.0 beta 3 from 29. August 2011
EAC extraction logfile from 15. December 2012, 19:32
Antoine Herve et Rolando Faria / La Lecon de Jazz - Antonio Carlos Jobim
Used drive : PLEXTOR DVDR PX-860A Adapter: 0 ID: 0
Read mode : Secure
Utilize accurate stream : Yes
Defeat audio cache : Yes
Make use of C2 pointers : No
Read offset correction : 96
Overread into Lead-In and Lead-Out : No
Fill up missing offset samples with silence : Yes
Delete leading and trailing silent blocks : No
Null samples used in CRC calculations : Yes
Used interface : Native Win32 interface for Win NT & 2000
Gap handling : Appended to previous track
Used output format : User Defined Encoder
Selected bitrate : 1024 kBit/s
Quality : High
Add ID3 tag : No
Command line compressor : C:\Program Files\Exact Audio Copy\Flac\flac.exe
Additional command line options : -8 -V -T "ARTIST=%artist%" -T "TITLE=%title%" -T "ALBUM=%albumtitle%" -T "DATE=%year%" -T "TRACKNUMBER=%tracknr%" -T "GENRE=%genre%" -T "PERFORMER=%albuminterpret%" -T "COMPOSER=%composer%" %haslyrics%--tag-from-file=LYRICS="%lyricsfile%"%haslyrics% -T "ALBUMARTIST=%albumartist%" -T "DISCNUMBER=%cdnumber%" -T "TOTALDISCS=%totalcds%" -T "TOTALTRACKS=%numtracks%" -T "COMMENT=EAC Secure Mode, Test & Copy, AccurateRip, FLAC -8" %source% -o %dest%
TOC of the extracted CD
Track | Start | Length | Start sector | End sector
---------------------------------------------------------
1 | 0:00.00 | 3:24.63 | 0 | 15362
2 | 3:24.63 | 4:35.62 | 15363 | 36049
3 | 8:00.50 | 3:47.23 | 36050 | 53097
4 | 11:47.73 | 4:07.37 | 53098 | 71659
5 | 15:55.35 | 6:35.10 | 71660 | 101294
6 | 22:30.45 | 3:18.64 | 101295 | 116208
7 | 25:49.34 | 5:56.66 | 116209 | 142974
8 | 31:46.25 | 2:50.10 | 142975 | 155734
9 | 34:36.35 | 4:36.42 | 155735 | 176476
10 | 39:13.02 | 5:36.07 | 176477 | 201683
11 | 44:49.09 | 6:23.37 | 201684 | 230445
12 | 51:12.46 | 3:31.62 | 230446 | 246332
13 | 54:44.33 | 4:49.59 | 246333 | 268066
Track 1
Filename I:\DL\Antoine Herve et Rolando Faria - La Lecon de Jazz - Antonio Carlos Jobim (2011) [FLAC]\01 - Samba do Aviao.wav
Pre-gap length 0:00:02.00
Peak level 92.3 %
Extraction speed 3.8 X
Track quality 99.9 %
Test CRC EFBE6BA6
Copy CRC EFBE6BA6
Track not present in AccurateRip database
Copy OK
Track 2
Filename I:\DL\Antoine Herve et Rolando Faria - La Lecon de Jazz - Antonio Carlos Jobim (2011) [FLAC]\02 - Desafinado.wav
Pre-gap length 0:00:01.98
Peak level 85.5 %
Extraction speed 5.0 X
Track quality 100.0 %
Test CRC 81228DDE
Copy CRC 81228DDE
Track not present in AccurateRip database
Copy OK
Track 3
Filename I:\DL\Antoine Herve et Rolando Faria - La Lecon de Jazz - Antonio Carlos Jobim (2011) [FLAC]\03 - So Tinha de ser com Voce.wav
Pre-gap length 0:00:01.98
Peak level 95.2 %
Extraction speed 5.3 X
Track quality 100.0 %
Test CRC 60854568
Copy CRC 60854568
Track not present in AccurateRip database
Copy OK
Track 4
Filename I:\DL\Antoine Herve et Rolando Faria - La Lecon de Jazz - Antonio Carlos Jobim (2011) [FLAC]\04 - Chega da Saudade.wav
Pre-gap length 0:00:01.98
Peak level 81.6 %
Extraction speed 5.7 X
Track quality 100.0 %
Test CRC 9D0B5DC5
Copy CRC 9D0B5DC5
Track not present in AccurateRip database
Copy OK
Track 5
Filename I:\DL\Antoine Herve et Rolando Faria - La Lecon de Jazz - Antonio Carlos Jobim (2011) [FLAC]\05 - Insensatez.wav
Pre-gap length 0:00:01.98
Peak level 82.8 %
Extraction speed 6.4 X
Track quality 100.0 %
Test CRC F2D21A74
Copy CRC F2D21A74
Track not present in AccurateRip database
Copy OK
Track 6
Filename I:\DL\Antoine Herve et Rolando Faria - La Lecon de Jazz - Antonio Carlos Jobim (2011) [FLAC]\06 - Samba de Uma Nota So.wav
Pre-gap length 0:00:01.98
Peak level 91.3 %
Extraction speed 5.5 X
Track quality 99.9 %
Test CRC 65710CEE
Copy CRC 65710CEE
Track not present in AccurateRip database
Copy OK
Track 7
Filename I:\DL\Antoine Herve et Rolando Faria - La Lecon de Jazz - Antonio Carlos Jobim (2011) [FLAC]\07 - Din-Di.wav
Pre-gap length 0:00:01.98
Peak level 85.2 %
Extraction speed 6.5 X
Track quality 99.9 %
Test CRC 7426B275
Copy CRC 7426B275
Track not present in AccurateRip database
Copy OK
Track 8
Filename I:\DL\Antoine Herve et Rolando Faria - La Lecon de Jazz - Antonio Carlos Jobim (2011) [FLAC]\08 - So Danco Samba.wav
Pre-gap length 0:00:01.98
Peak level 93.4 %
Extraction speed 6.7 X
Track quality 100.0 %
Test CRC B307780B
Copy CRC B307780B
Track not present in AccurateRip database
Copy OK
Track 9
Filename I:\DL\Antoine Herve et Rolando Faria - La Lecon de Jazz - Antonio Carlos Jobim (2011) [FLAC]\09 - Inutil Paysagem.wav
Pre-gap length 0:00:01.98
Peak level 82.2 %
Extraction speed 6.7 X
Track quality 99.9 %
Test CRC B5F18F8E
Copy CRC B5F18F8E
Track not present in AccurateRip database
Copy OK
Track 10
Filename I:\DL\Antoine Herve et Rolando Faria - La Lecon de Jazz - Antonio Carlos Jobim (2011) [FLAC]\10 - Agua de Beber.wav
Pre-gap length 0:00:01.98
Peak level 94.1 %
Extraction speed 7.7 X
Track quality 100.0 %
Test CRC 6A67D4D9
Copy CRC 6A67D4D9
Track not present in AccurateRip database
Copy OK
Track 11
Filename I:\DL\Antoine Herve et Rolando Faria - La Lecon de Jazz - Antonio Carlos Jobim (2011) [FLAC]\11 - Corcovado.wav
Pre-gap length 0:00:01.98
Peak level 85.0 %
Extraction speed 8.3 X
Track quality 100.0 %
Test CRC 1B4C9FD6
Copy CRC 1B4C9FD6
Track not present in AccurateRip database
Copy OK
Track 12
Filename I:\DL\Antoine Herve et Rolando Faria - La Lecon de Jazz - Antonio Carlos Jobim (2011) [FLAC]\12 - Luiza.wav
Pre-gap length 0:00:01.98
Peak level 83.7 %
Extraction speed 7.0 X
Track quality 99.9 %
Test CRC 644EB6E0
Copy CRC 644EB6E0
Track not present in AccurateRip database
Copy OK
Track 13
Filename I:\DL\Antoine Herve et Rolando Faria - La Lecon de Jazz - Antonio Carlos Jobim (2011) [FLAC]\13 - Eu se Que Vou te Amar.wav
Pre-gap length 0:00:01.98
Peak level 84.8 %
Extraction speed 8.3 X
Track quality 100.0 %
Test CRC 8783D669
Copy CRC 8783D669
Track not present in AccurateRip database
Copy OK
None of the tracks are present in the AccurateRip database
No errors occurred
End of status report
---- CUETools DB Plugin V2.1.3
[CTDB TOCID: R9o3ZEYTwd5iUfrtv45aBxv4vuY-] disk not present in database, Submit result: database access error: The request was aborted: The request was canceled.
==== Log checksum 8B36948583A6F47AB8506E0A9F2EFA707B01CF2E000CD7DF86A28CCC9F26DA9C ====
 
Содержание индексной карты (.CUE)
REM GENRE Jazz
REM DATE 2011
REM DISCID B90DF60D
REM COMMENT "ExactAudioCopy v1.0b3"
PERFORMER "Antoine Herve et Rolando Faria"
TITLE "La Lecon de Jazz - Antonio Carlos Jobim"
FILE "01 - Samba do Aviao.wav" WAVE
TRACK 01 AUDIO
TITLE "Samba do Aviao"
PERFORMER "Antoine Herve et Rolando Faria"
INDEX 01 00:00:00
TRACK 02 AUDIO
TITLE "Desafinado"
PERFORMER "Antoine Herve et Rolando Faria"
INDEX 00 03:22:64
FILE "02 - Desafinado.wav" WAVE
INDEX 01 00:00:00
TRACK 03 AUDIO
TITLE "So Tinha de ser com Voce"
PERFORMER "Antoine Herve et Rolando Faria"
INDEX 00 04:33:63
FILE "03 - So Tinha de ser com Voce.wav" WAVE
INDEX 01 00:00:00
TRACK 04 AUDIO
TITLE "Chega da Saudade"
PERFORMER "Antoine Herve et Rolando Faria"
INDEX 00 03:45:24
FILE "04 - Chega da Saudade.wav" WAVE
INDEX 01 00:00:00
TRACK 05 AUDIO
TITLE "Insensatez"
PERFORMER "Antoine Herve et Rolando Faria"
INDEX 00 04:05:38
FILE "05 - Insensatez.wav" WAVE
INDEX 01 00:00:00
TRACK 06 AUDIO
TITLE "Samba de Uma Nota So"
PERFORMER "Antoine Herve et Rolando Faria"
INDEX 00 06:33:11
FILE "06 - Samba de Uma Nota So.wav" WAVE
INDEX 01 00:00:00
TRACK 07 AUDIO
TITLE "Din-Di"
PERFORMER "Antoine Herve et Rolando Faria"
INDEX 00 03:16:65
FILE "07 - Din-Di.wav" WAVE
INDEX 01 00:00:00
TRACK 08 AUDIO
TITLE "So Danco Samba"
PERFORMER "Antoine Herve et Rolando Faria"
INDEX 00 05:54:67
FILE "08 - So Danco Samba.wav" WAVE
INDEX 01 00:00:00
TRACK 09 AUDIO
TITLE "Inutil Paysagem"
PERFORMER "Antoine Herve et Rolando Faria"
INDEX 00 02:48:11
FILE "09 - Inutil Paysagem.wav" WAVE
INDEX 01 00:00:00
TRACK 10 AUDIO
TITLE "Agua de Beber"
PERFORMER "Antoine Herve et Rolando Faria"
INDEX 00 04:34:43
FILE "10 - Agua de Beber.wav" WAVE
INDEX 01 00:00:00
TRACK 11 AUDIO
TITLE "Corcovado"
PERFORMER "Antoine Herve et Rolando Faria"
INDEX 00 05:34:08
FILE "11 - Corcovado.wav" WAVE
INDEX 01 00:00:00
TRACK 12 AUDIO
TITLE "Luiza"
PERFORMER "Antoine Herve et Rolando Faria"
INDEX 00 06:21:38
FILE "12 - Luiza.wav" WAVE
INDEX 01 00:00:00
TRACK 13 AUDIO
TITLE "Eu se Que Vou te Amar"
PERFORMER "Antoine Herve et Rolando Faria"
INDEX 00 03:29:63
FILE "13 - Eu se Que Vou te Amar.wav" WAVE
INDEX 01 00:00:00
 
Состав
Antoine Herve - p
Rolando Faria - voc
13:36
460
Нет комментариев. Ваш будет первым!