Поиск

(Afro-Cuban Jazz, Bop, World Fusion) Dizzy Gillespie & Arturo Sandoval - Gillespie & Sandoval {Swing Love, Gillespie En Vivo: "Festival International De Jazz 1985" Cuba} - 1992, FLAC (tracks+.cue), lossless

(Afro-Cuban Jazz, Bop, World Fusion) Dizzy Gillespie & Arturo Sandoval - Gillespie & Sandoval {Swing Love, Gillespie En Vivo: "Festival International De Jazz 1985" Cuba} - 1992, FLAC (tracks+.cue), lossless
Треклист:
Dizzy Gillespie & Arturo Sandoval - Gillespie & Sandoval
Жанр: Afro-Cuban Jazz, Bop, World Fusion
Год издания: 1992
Издатель (лейбл): Habacan
Номер по каталогу: HABCD-2435
Аудиокодек: FLAC (*.flac)
Тип рипа: tracks+.cue
Битрейт аудио: lossless
Продолжительность: 47:21
Источник (релизер): drinkingourd (what)
Наличие сканов в содержимом раздачи: нет
Треклист:
01. Swing Love (Gillespie) - 12:16
02. The Blues (Schifrin) - 12:53
03. A Night in Tunisia (Gillespie) - 14:55
04. Gee Baby, Ain't I Good to Ya (Redman-Gillespie) - 7:17
Recorded live at Festival International De Jazz 1985, Cuba.
 
Лог создания рипа
X Lossless Decoder version 20130720 (144.0)
XLD extraction logfile from 2013-10-24 09:57:13 -0700
Dizzy Gillespie & Arturo Sandoval / Gillespie & Sandoval
Used drive : MATSHITA DVD-R UJ-857E (revision ZB0E)
Media type : Pressed CD
Ripper mode : XLD Secure Ripper
Disable audio cache : OK for the drive with a cache less than 1375KiB
Make use of C2 pointers : NO
Read offset correction : 102
Max retry count : 20
Gap status : Analyzed, Appended (except HTOA)
TOC of the extracted CD
Track | Start | Length | Start sector | End sector
---------------------------------------------------------
1 | 00:00:00 | 12:16:00 | 0 | 55199
2 | 12:16:00 | 12:52:42 | 55200 | 113141
3 | 25:08:42 | 14:54:58 | 113142 | 180249
4 | 40:03:25 | 07:16:40 | 180250 | 212989
AccurateRip Summary
Disc not found in AccurateRip DB.
All Tracks
Album gain : 1.20 dB
Peak : 0.840851
Statistics
Read error : 0
Jitter error (maybe fixed) : 0
Retry sector count : 0
Damaged sector count : 0
Track 01
Filename : /Users/Willow/Desktop/Upload to World/Dizzy Gillespie & Arturo Sandoval - Gillespie & Sandoval (1992) [LAME MP3 (VBR-new quality 2.0)]/01 Swing Love.mp3
/Users/Willow/Desktop/Upload to World/Dizzy Gillespie & Arturo Sandoval - Gillespie & Sandoval (1992) [LAME MP3 (VBR-new quality 0.0)]/01 Swing Love.mp3
/Users/Willow/Desktop/Upload to World/Dizzy Gillespie & Arturo Sandoval - Gillespie & Sandoval (1992) [LAME MP3 (CBR 320kbps)]/01 Swing Love.mp3
/Users/Willow/Desktop/Upload to World/Dizzy Gillespie & Arturo Sandoval - Gillespie & Sandoval (1992) [FLAC (level 5)]/01 Swing Love.flac
Pre-gap length : 00:02:00
Track gain : 1.20 dB
Peak : 0.761688
CRC32 hash (test run) : A9EAF0D8
CRC32 hash : A9EAF0D8
CRC32 hash (skip zero) : CE824D95
AccurateRip v1 signature : 9A3DF01F
AccurateRip v2 signature : D2046EE5
->Track not present in AccurateRip database.
Statistics
Read error : 0
Jitter error (maybe fixed) : 0
Retry sector count : 0
Damaged sector count : 0
Track 02
Filename : /Users/Willow/Desktop/Upload to World/Dizzy Gillespie & Arturo Sandoval - Gillespie & Sandoval (1992) [LAME MP3 (VBR-new quality 2.0)]/02 The Blues.mp3
/Users/Willow/Desktop/Upload to World/Dizzy Gillespie & Arturo Sandoval - Gillespie & Sandoval (1992) [LAME MP3 (VBR-new quality 0.0)]/02 The Blues.mp3
/Users/Willow/Desktop/Upload to World/Dizzy Gillespie & Arturo Sandoval - Gillespie & Sandoval (1992) [LAME MP3 (CBR 320kbps)]/02 The Blues.mp3
/Users/Willow/Desktop/Upload to World/Dizzy Gillespie & Arturo Sandoval - Gillespie & Sandoval (1992) [FLAC (level 5)]/02 The Blues.flac
Track gain : 1.51 dB
Peak : 0.710754
CRC32 hash (test run) : 0E0EAFE3
CRC32 hash : 0E0EAFE3
CRC32 hash (skip zero) : 5638CBB5
AccurateRip v1 signature : 74786932
AccurateRip v2 signature : 2B1A36F1
->Track not present in AccurateRip database.
Statistics
Read error : 0
Jitter error (maybe fixed) : 0
Retry sector count : 0
Damaged sector count : 0
Track 03
Filename : /Users/Willow/Desktop/Upload to World/Dizzy Gillespie & Arturo Sandoval - Gillespie & Sandoval (1992) [LAME MP3 (VBR-new quality 2.0)]/03 A Night In Tunisia.mp3
/Users/Willow/Desktop/Upload to World/Dizzy Gillespie & Arturo Sandoval - Gillespie & Sandoval (1992) [LAME MP3 (VBR-new quality 0.0)]/03 A Night In Tunisia.mp3
/Users/Willow/Desktop/Upload to World/Dizzy Gillespie & Arturo Sandoval - Gillespie & Sandoval (1992) [LAME MP3 (CBR 320kbps)]/03 A Night In Tunisia.mp3
/Users/Willow/Desktop/Upload to World/Dizzy Gillespie & Arturo Sandoval - Gillespie & Sandoval (1992) [FLAC (level 5)]/03 A Night In Tunisia.flac
Pre-gap length : 00:09:40
Track gain : 0.98 dB
Peak : 0.840851
CRC32 hash (test run) : EAB7A319
CRC32 hash : EAB7A319
CRC32 hash (skip zero) : 414F6E38
AccurateRip v1 signature : 64515699
AccurateRip v2 signature : C08F8496
->Track not present in AccurateRip database.
Statistics
Read error : 0
Jitter error (maybe fixed) : 0
Retry sector count : 0
Damaged sector count : 0
Track 04
Filename : /Users/Willow/Desktop/Upload to World/Dizzy Gillespie & Arturo Sandoval - Gillespie & Sandoval (1992) [LAME MP3 (VBR-new quality 2.0)]/04 Gee Baby, Ain't I Good To Ya.mp3
/Users/Willow/Desktop/Upload to World/Dizzy Gillespie & Arturo Sandoval - Gillespie & Sandoval (1992) [LAME MP3 (VBR-new quality 0.0)]/04 Gee Baby, Ain't I Good To Ya.mp3
/Users/Willow/Desktop/Upload to World/Dizzy Gillespie & Arturo Sandoval - Gillespie & Sandoval (1992) [LAME MP3 (CBR 320kbps)]/04 Gee Baby, Ain't I Good To Ya.mp3
/Users/Willow/Desktop/Upload to World/Dizzy Gillespie & Arturo Sandoval - Gillespie & Sandoval (1992) [FLAC (level 5)]/04 Gee Baby, Ain't I Good To Ya.flac
Track gain : 1.22 dB
Peak : 0.777435
CRC32 hash (test run) : DD7E8EC3
CRC32 hash : DD7E8EC3
CRC32 hash (skip zero) : 1E8FA085
AccurateRip v1 signature : E2D35552
AccurateRip v2 signature : F1187048
->Track not present in AccurateRip database.
Statistics
Read error : 0
Jitter error (maybe fixed) : 0
Retry sector count : 0
Damaged sector count : 0
No errors occurred
End of status report
 
Содержание индексной карты (.CUE)
TITLE "Gillespie & Sandoval"
PERFORMER "Dizzy Gillespie & Arturo Sandoval"
REM GENRE "Jazz"
REM DATE "1985"
REM DISCID 260B1704
REM REPLAYGAIN_ALBUM_GAIN 1.20 dB
REM REPLAYGAIN_ALBUM_PEAK 0.840851
FILE "01 - Swing Love.flac" WAVE
TRACK 01 AUDIO
TITLE "Swing Love"
REM REPLAYGAIN_TRACK_GAIN 1.20 dB
REM REPLAYGAIN_TRACK_PEAK 0.761688
INDEX 01 00:00:00
FILE "02 - The Blues.flac" WAVE
TRACK 02 AUDIO
TITLE "The Blues"
REM REPLAYGAIN_TRACK_GAIN 1.51 dB
REM REPLAYGAIN_TRACK_PEAK 0.710754
INDEX 01 00:00:00
TRACK 03 AUDIO
TITLE "A Night in Tunisia"
REM REPLAYGAIN_TRACK_GAIN 0.98 dB
REM REPLAYGAIN_TRACK_PEAK 0.840851
INDEX 00 12:43:02
FILE "03 - A Night in Tunisia.flac" WAVE
INDEX 01 00:00:00
FILE "04 - Gee Baby, Ain't I Good to Ya.flac" WAVE
TRACK 04 AUDIO
TITLE "Gee Baby, Ain't I Good to Ya"
REM REPLAYGAIN_TRACK_GAIN 1.22 dB
REM REPLAYGAIN_TRACK_PEAK 0.777435
INDEX 01 00:00:00
 
Отчет CUETools
[CUETools log; Date: 25.10.2013 0:01:53; Version: 2.1.4]
[CTDB TOCID: TZqz3Q46IKXHl7waRfttf7vUZsk-] disk not present in database.
[AccurateRip ID: 000891ae-00221d81-260b1704] disk not present in database.
Track Peak [ CRC32 ] [W/O NULL]
-- 84,0 [E4930B77] [E125555C]
01 76,1 [A9EAF0D8] [CE824D95]
02 71,0 [0E0EAFE3] [5638CBB5]
03 84,0 [EAB7A319] [414F6E38]
04 77,7 [DD7E8EC3] [1E8FA085]
 
Об альбоме (сборнике)
This album is a great live album from Dizzy Gillespie and its features Arturo Sandoval on A night in Tunisia!! I think its quite rare and a must have for Arturo Sandoval fans. It also features a great sax player, I do not know his name but he has an unbelivable range on his sax, like Arturo on the trumpet..
-- by J. Lindberg
12:37
436
Нет комментариев. Ваш будет первым!