Поиск

(Gospel, Soul) [CD] Esther Marrow - Sister Woman (1972) - 2010, FLAC (tracks+.cue), lossless

(Gospel, Soul) [CD] Esther Marrow - Sister Woman (1972) - 2010, FLAC (tracks+.cue), lossless
Треклист:
Esther Marrow - Sister Woman (1972) Жанр: Gospel, Soul
Носитель: CD
Год издания: 2010
Издатель (лейбл): BGP Records/Ace Records
Номер по каталогу: CDBGPM 212
Аудиокодек: FLAC (*.flac)
Тип рипа: tracks+.cue
Битрейт аудио: lossless
Продолжительность: 36:07
Источник (релизер): ruskaval
Наличие сканов в содержимом раздачи: да
Треклист:
01. Woman In The Window (3:20)
02. Ghetto (4:21)
03. Trade Winds (4:45)
04. Turn On To Jesus (6:12)
05. Rainy Night In Georgia (5:42)
06. Things Ain't Right (3:39)
07. Ask Me To Dance (3:06)
08. And When I Die (5:03)
 
 
Несколько слов на английском
Now known as “Queen” Esther Marrow, her gospel and stage performances have made her a worldwide concert draw. She recorded two sought-after funk albums early in her career, marked by some excellent songs and fantastic musicianship. “Sister Woman” was her second LP and has the great combination of a killer band, that included Bernard Purdie, Cornell Dupree and Richard Tee and choice songs. ‘Things Ain’t Right’ and ‘And When I Die’ are funk-fuelled floorfillers, and her cover of ‘The Ghetto’ is simply amazing.
Esther Marrow is most known as a jazz singer (including a stint with Duke Ellington in the 1960s) and as a gospel artist (with the Harlem Gospel Singers since 1990). Like many vocalists whose background wasn't strictly R&B, however, she also recorded some soul music. Sister Woman, from 1972, was her second album. While her vocals are strong (and, on "Turn on to Jesus" especially, have more than a hint of gospel), it's a more or less typical soul LP of the era without much that stands out. Some jazz and funk make their way into the mix, as well as covers of a couple popular hits of the day in "Rainy Night in Georgia" and some of the social consciousness permeating early-'70s soul (in "Ghetto"). "Trade Winds" holds some interest, as the ballad might be the first recording of a song later done by Rod Stewart, Roberta Flack, and Lou Rawls, and "Ask Me Dance" (arranged and written by Bobby Scott) verges on a nearly adult contemporary singer/songwriter sensibility. The 2010 reissue on BGP adds historical liner notes.

 
Лог создания рипа
Exact Audio Copy V0.99 prebeta 4 from 23. January 2008
EAC extraction logfile from 19. July 2010, 23:25
Esther Marrow / Sister Woman
Used drive : TSSTcorpCD/DVDW TS-H652M Adapter: 1 ID: 0
Read mode : Secure
Utilize accurate stream : Yes
Defeat audio cache : Yes
Make use of C2 pointers : No
Read offset correction : 6
Overread into Lead-In and Lead-Out : No
Fill up missing offset samples with silence : Yes
Delete leading and trailing silent blocks : No
Null samples used in CRC calculations : Yes
Used interface : Native Win32 interface for Win NT & 2000
Gap handling : Appended to previous track
Used output format : User Defined Encoder
Selected bitrate : 320 kBit/s
Quality : High
Add ID3 tag : No
Command line compressor : C:\Program Files\Exact Audio Copy\Flac\flac.exe
Additional command line options : -8 -V -T "ARTIST=%a" -T "TITLE=%t" -T "ALBUM=%g" -T "DATE=%y" -T "TRACKNUMBER=%n" -T "TOTALTRACKS=%x" -T "GENRE=%m" -T "ALBUM ARTIST=%v" -T "ALBUMARTIST=%v" -T "COMMENT=EAC V0.99 prebeta 4, Secure Mode, Test & Copy, Accura
TOC of the extracted CD
Track | Start | Length | Start sector | End sector
---------------------------------------------------------
1 | 0:00.00 | 3:19.52 | 0 | 14976
2 | 3:19.52 | 4:21.09 | 14977 | 34560
3 | 7:40.61 | 4:44.63 | 34561 | 55923
4 | 12:25.49 | 6:12.00 | 55924 | 83823
5 | 18:37.49 | 5:41.55 | 83824 | 109453
6 | 24:19.29 | 3:39.13 | 109454 | 125891
7 | 27:58.42 | 3:05.42 | 125892 | 139808
8 | 31:04.09 | 5:02.43 | 139809 | 162501
Track 1
Filename C:\CDs\Esther Marrow - Sister Woman (1972) [FLAC] {2010 BGP Reissue}\01 - Woman In The Window.wav
Pre-gap length 0:00:02.00
Peak level 91.8 %
Track quality 100.0 %
Test CRC 956A13C9
Copy CRC 956A13C9
Track not present in AccurateRip database
Copy OK
Track 2
Filename C:\CDs\Esther Marrow - Sister Woman (1972) [FLAC] {2010 BGP Reissue}\02 - Ghetto.wav
Pre-gap length 0:00:02.60
Peak level 89.6 %
Track quality 100.0 %
Test CRC 1A7DB442
Copy CRC 1A7DB442
Track not present in AccurateRip database
Copy OK
Track 3
Filename C:\CDs\Esther Marrow - Sister Woman (1972) [FLAC] {2010 BGP Reissue}\03 - Trade Winds.wav
Pre-gap length 0:00:03.29
Peak level 89.5 %
Track quality 100.0 %
Test CRC CCB96979
Copy CRC CCB96979
Track not present in AccurateRip database
Copy OK
Track 4
Filename C:\CDs\Esther Marrow - Sister Woman (1972) [FLAC] {2010 BGP Reissue}\04 - Turn On To Jesus.wav
Pre-gap length 0:00:04.04
Peak level 87.2 %
Track quality 100.0 %
Test CRC EACB269D
Copy CRC EACB269D
Track not present in AccurateRip database
Copy OK
Track 5
Filename C:\CDs\Esther Marrow - Sister Woman (1972) [FLAC] {2010 BGP Reissue}\05 - Rainy Night In Georgia.wav
Pre-gap length 0:00:03.00
Peak level 88.7 %
Track quality 100.0 %
Test CRC 40F85197
Copy CRC 40F85197
Track not present in AccurateRip database
Copy OK
Track 6
Filename C:\CDs\Esther Marrow - Sister Woman (1972) [FLAC] {2010 BGP Reissue}\06 - Things Ain't Right.wav
Pre-gap length 0:00:03.46
Peak level 83.6 %
Track quality 99.9 %
Test CRC 30BF00E6
Copy CRC 30BF00E6
Track not present in AccurateRip database
Copy OK
Track 7
Filename C:\CDs\Esther Marrow - Sister Woman (1972) [FLAC] {2010 BGP Reissue}\07 - Ask Me To Dance.wav
Pre-gap length 0:00:04.89
Peak level 67.9 %
Track quality 100.0 %
Test CRC 7F537B18
Copy CRC 7F537B18
Track not present in AccurateRip database
Copy OK
Track 8
Filename C:\CDs\Esther Marrow - Sister Woman (1972) [FLAC] {2010 BGP Reissue}\08 - And When I Die.wav
Pre-gap length 0:00:03.80
Peak level 86.2 %
Track quality 100.0 %
Test CRC B504A675
Copy CRC B504A675
Track not present in AccurateRip database
Copy OK
None of the tracks are present in the AccurateRip database
No errors occurred
End of status report
 
Содержание индексной карты (.CUE)
REM GENRE Soul
REM DATE 1972
REM DISCID 5F087608
REM COMMENT "ExactAudioCopy v0.99pb4"
PERFORMER "Esther Marrow"
TITLE "Sister Woman"
FILE "01 - Woman In The Window.wav" WAVE
TRACK 01 AUDIO
TITLE "Woman In The Window"
PERFORMER "Esther Marrow"
INDEX 01 00:00:00
TRACK 02 AUDIO
TITLE "Ghetto"
PERFORMER "Esther Marrow"
INDEX 00 03:17:07
FILE "02 - Ghetto.wav" WAVE
INDEX 01 00:00:00
TRACK 03 AUDIO
TITLE "Trade Winds"
PERFORMER "Esther Marrow"
INDEX 00 04:17:62
FILE "03 - Trade Winds.wav" WAVE
INDEX 01 00:00:00
TRACK 04 AUDIO
TITLE "Turn On To Jesus"
PERFORMER "Esther Marrow"
INDEX 00 04:40:60
FILE "04 - Turn On To Jesus.wav" WAVE
INDEX 01 00:00:00
TRACK 05 AUDIO
TITLE "Rainy Night In Georgia"
PERFORMER "Esther Marrow"
INDEX 00 06:09:00
FILE "05 - Rainy Night In Georgia.wav" WAVE
INDEX 01 00:00:00
TRACK 06 AUDIO
TITLE "Things Ain't Right"
PERFORMER "Esther Marrow"
INDEX 00 05:38:20
FILE "06 - Things Ain't Right.wav" WAVE
INDEX 01 00:00:00
TRACK 07 AUDIO
TITLE "Ask Me To Dance"
PERFORMER "Esther Marrow"
INDEX 00 03:34:21
FILE "07 - Ask Me To Dance.wav" WAVE
INDEX 01 00:00:00
TRACK 08 AUDIO
TITLE "And When I Die"
PERFORMER "Esther Marrow"
INDEX 00 03:01:57
FILE "08 - And When I Die.wav" WAVE
INDEX 01 00:00:00
Приватный:
Нет (DHT включён)
Размер:
219.67 Мб (230,341,329 байт) » файлов: 20
Участники:
0 раздают, 0 качают (0 участников всего)
Внешние участники:
5 раздают, 1 качают (6 участников всего) [ Обновить ]
No seeders - write a personal message to user M0p94ok. Нет сидеров - пишите личное сообщение пользователю M0p94ok.
13:36
67
Нет комментариев. Ваш будет первым!