Поиск

(Funk, Soul, Swingbeat) [CD] Swoop - The Woxo Principle - 1995, FLAC (tracks+.cue), lossless

(Funk, Soul, Swingbeat) [CD] Swoop - The Woxo Principle - 1995, FLAC (tracks+.cue), lossless
Треклист:
Swoop / The Woxo Principle
Жанр: Funk, Soul, Swingbeat
Носитель: CD
Страна-производитель диска (релиза): Australia
Год издания: 1995
Издатель (лейбл): Mushroom
Номер по каталогу: D31445
Аудиокодек: FLAC (*.flac)
Тип рипа: tracks+.cue
Битрейт аудио: lossless
Продолжительность: 1:16:01.
Источник (релизер): clustert
Наличие сканов в содержимом раздачи: да
Треклист:
01. Woxo Prelude [0:00:41.02]
02. Living How I'm Living [0:03:12.23]
03. Ephemera (Drop The Vibe) [0:03:20.10]
04. Rock Dog [0:05:50.10]
05. Apple Eyes [0:03:26.35]
06. The Woxo Principle (Gammaphasabiosonicpsychobombalistaphonic) [0:06:09.65]
07. Interlude: Laughing Stock [0:00:32.02]
08. Shaka Uwaye La [0:03:56.68]
09. Matter Of Time (Parts 1 & 2) [0:07:20.07]
10. (It Could Happen) Any Day Now [0:04:22.35]
11. How Much Do You Want My Love [0:01:56.70]
12. Do That To Me (One More Time) [0:03:52.65]
13. 93 Million Miles Away [0:05:18.00]
14. Neighbourhood Freak [0:03:53.23]
15. Shalla Bal (Ballad(e) Of The Silver Surfer) [0:03:35.10]
16. Interlude: The Breadman Suite [0:01:20.25]
17. Atomic Slam [0:17:13.72]
 
Лог создания рипа
Exact Audio Copy V1.0 beta 3 from 29. August 2011
Отчёт EAC об извлечении, выполненном 8. апреля 2017, 23:32
Swoop / The Woxo Principle
Дисковод: ASUS DRW-1814BLT Adapter: 4 ID: 0
Режим чтения : Достоверность
Использование точного потока : Да
Отключение кэша аудио : Да
Использование указателей C2 : Нет
Коррекция смещения при чтении : 6
Способность читать области Lead-in и Lead-out : Нет
Заполнение пропущенных сэмплов тишиной : Да
Удаление блоков с тишиной в начале и конце : Нет
При вычислениях CRC использовались нулевые сэмплы : Да
Интерфейс : Встроенный Win32-интерфейс для Win NT/2000
Обработка зазоров : Добавлено к предыдущему треку
Выходной формат : Пользовательский кодировщик
Выбранный битрейт : 128 kBit/s
Качество : Высокий
Добавление ID3-тега : Нет
Утилита сжатия : C:\Program Files\Exact Audio Copy\Flac\flac.exe
Дополнительные параметры : -V -8 -T "Genre=%genre%" -T "Artist=%artist%" -T "Title=%title%" -T "Album=%albumtitle%" -T "Date=%year%" -T "Tracknumber=%tracknr%" -T "Comment=EAC1.0b2 FLAC -8" %source%
TOC извлечённого CD
Трек | Старт | Длительность | Начальный сектор | Конечный сектор
---------------------------------------------------------------------
1 | 0:00.00 | 0:41.02 | 0 | 3076
2 | 0:41.02 | 3:12.23 | 3077 | 17499
3 | 3:53.25 | 3:20.10 | 17500 | 32509
4 | 7:13.35 | 5:50.10 | 32510 | 58769
5 | 13:03.45 | 3:26.35 | 58770 | 74254
6 | 16:30.05 | 6:09.65 | 74255 | 101994
7 | 22:39.70 | 0:32.02 | 101995 | 104396
8 | 23:11.72 | 3:56.68 | 104397 | 122164
9 | 27:08.65 | 7:20.07 | 122165 | 155171
10 | 34:28.72 | 4:22.35 | 155172 | 174856
11 | 38:51.32 | 1:56.70 | 174857 | 183626
12 | 40:48.27 | 3:52.65 | 183627 | 201091
13 | 44:41.17 | 5:18.00 | 201092 | 224941
14 | 49:59.17 | 3:53.23 | 224942 | 242439
15 | 53:52.40 | 3:35.10 | 242440 | 258574
16 | 57:27.50 | 1:20.25 | 258575 | 264599
17 | 58:48.00 | 17:13.72 | 264600 | 342146
Трек 1
Имя файла R:\Раздача 73\Swoop - 1995 - The Woxo Principle\01 Woxo Prelude .wav
Длина предзазора 0:00:02.00
Пиковый уровень 68.0 %
Скорость извлечения 2.3 X
Качество трека 100.0 %
CRC теста 793B9966
CRC копии 793B9966
Точное извлечение (достоверность 4) [6904FFB2] (AR v2)
Копирование... OK
Трек 2
Имя файла R:\Раздача 73\Swoop - 1995 - The Woxo Principle\02 Living How I'm Living .wav
Пиковый уровень 97.7 %
Скорость извлечения 4.7 X
Качество трека 100.0 %
CRC теста 1B160FDC
CRC копии 1B160FDC
Точное извлечение (достоверность 4) [5DEAC4FA] (AR v2)
Копирование... OK
Трек 3
Имя файла R:\Раздача 73\Swoop - 1995 - The Woxo Principle\03 Ephemera (Drop The Vibe) .wav
Пиковый уровень 96.8 %
Скорость извлечения 4.9 X
Качество трека 100.0 %
CRC теста 7D38C6EB
CRC копии 7D38C6EB
Точное извлечение (достоверность 4) [61E1D970] (AR v2)
Копирование... OK
Трек 4
Имя файла R:\Раздача 73\Swoop - 1995 - The Woxo Principle\04 Rock Dog .wav
Пиковый уровень 100.0 %
Скорость извлечения 5.9 X
Качество трека 100.0 %
CRC теста DF2D4EE6
CRC копии DF2D4EE6
Точное извлечение (достоверность 4) [C3B8EFBD] (AR v2)
Копирование... OK
Трек 5
Имя файла R:\Раздача 73\Swoop - 1995 - The Woxo Principle\05 Apple Eyes .wav
Пиковый уровень 100.0 %
Скорость извлечения 4.1 X
Качество трека 99.9 %
CRC теста 11926B29
CRC копии 11926B29
Точное извлечение (достоверность 4) [954EEF63] (AR v2)
Копирование... OK
Трек 6
Имя файла R:\Раздача 73\Swoop - 1995 - The Woxo Principle\06 The Woxo Principle (Gammaphasabiosonicpsychobombalistaphonic) .wav
Пиковый уровень 100.0 %
Скорость извлечения 5.0 X
Качество трека 99.9 %
CRC теста 3854EC09
CRC копии 3854EC09
Точное извлечение (достоверность 4) [45CAAD93] (AR v2)
Копирование... OK
Трек 7
Имя файла R:\Раздача 73\Swoop - 1995 - The Woxo Principle\07 Interlude- Laughing Stock .wav
Пиковый уровень 63.9 %
Скорость извлечения 2.9 X
Качество трека 100.0 %
CRC теста B560B2AA
CRC копии B560B2AA
Точное извлечение (достоверность 4) [763176D6] (AR v2)
Копирование... OK
Трек 8
Имя файла R:\Раздача 73\Swoop - 1995 - The Woxo Principle\08 Shaka Uwaye La .wav
Пиковый уровень 100.0 %
Скорость извлечения 5.6 X
Качество трека 100.0 %
CRC теста BDA31A06
CRC копии BDA31A06
Точное извлечение (достоверность 4) [1E6E8642] (AR v2)
Копирование... OK
Трек 9
Имя файла R:\Раздача 73\Swoop - 1995 - The Woxo Principle\09 Matter Of Time (Parts 1 & 2) .wav
Пиковый уровень 95.5 %
Скорость извлечения 7.8 X
Качество трека 100.0 %
CRC теста 743439D2
CRC копии 743439D2
Точное извлечение (достоверность 4) [C800FE4C] (AR v2)
Копирование... OK
Трек 10
Имя файла R:\Раздача 73\Swoop - 1995 - The Woxo Principle\10 (It Could Happen) Any Day Now .wav
Пиковый уровень 100.0 %
Скорость извлечения 7.8 X
Качество трека 100.0 %
CRC теста 8D61F60B
CRC копии 8D61F60B
Точное извлечение (достоверность 4) [610273EA] (AR v2)
Копирование... OK
Трек 11
Имя файла R:\Раздача 73\Swoop - 1995 - The Woxo Principle\11 How Much Do You Want My Love .wav
Пиковый уровень 94.7 %
Скорость извлечения 6.9 X
Качество трека 100.0 %
CRC теста 680E6F1D
CRC копии 680E6F1D
Точное извлечение (достоверность 4) [C88C67A7] (AR v2)
Копирование... OK
Трек 12
Имя файла R:\Раздача 73\Swoop - 1995 - The Woxo Principle\12 Do That To Me (One More Time) .wav
Пиковый уровень 96.9 %
Скорость извлечения 8.0 X
Качество трека 100.0 %
CRC теста B5918383
CRC копии B5918383
Точное извлечение (достоверность 4) [0A3DA3B3] (AR v2)
Копирование... OK
Трек 13
Имя файла R:\Раздача 73\Swoop - 1995 - The Woxo Principle\13 93 Million Miles Away .wav
Пиковый уровень 97.8 %
Скорость извлечения 8.7 X
Качество трека 100.0 %
CRC теста 580EB939
CRC копии 580EB939
Точное извлечение (достоверность 4) [66A0AB79] (AR v2)
Копирование... OK
Трек 14
Имя файла R:\Раздача 73\Swoop - 1995 - The Woxo Principle\14 Neighbourhood Freak .wav
Пиковый уровень 94.7 %
Скорость извлечения 8.5 X
Качество трека 100.0 %
CRC теста BFAA69EA
CRC копии BFAA69EA
Точное извлечение (достоверность 4) [0A50E131] (AR v2)
Копирование... OK
Трек 15
Имя файла R:\Раздача 73\Swoop - 1995 - The Woxo Principle\15 Shalla Bal (Ballad(e) Of The Silver Surfer) .wav
Пиковый уровень 98.6 %
Скорость извлечения 6.1 X
Качество трека 99.9 %
CRC теста 3B8056FE
CRC копии 3B8056FE
Точное извлечение (достоверность 4) [5E548FBA] (AR v2)
Копирование... OK
Трек 16
Имя файла R:\Раздача 73\Swoop - 1995 - The Woxo Principle\16 Interlude- The Breadman Suite .wav
Пиковый уровень 79.4 %
Скорость извлечения 4.3 X
Качество трека 99.8 %
CRC теста DE5FC0C6
CRC копии DE5FC0C6
Точное извлечение (достоверность 4) [70D92D57] (AR v2)
Копирование... OK
Трек 17
Имя файла R:\Раздача 73\Swoop - 1995 - The Woxo Principle\17 Atomic Slam .wav
Пиковый уровень 100.0 %
Скорость извлечения 10.5 X
Качество трека 100.0 %
CRC теста 44BB278F
CRC копии 44BB278F
Точное извлечение (достоверность 4) [1126858E] (AR v2)
Копирование... OK
Все треки извлечены точно
Ошибок не произошло
Конец отчёта
==== Контрольная сумма отчёта F190D40994D0DF415BB84D12C4F3B0697BF54865E57A0F13814334B3927B4FD0 ====
 
Содержание индексной карты (.CUE)
REM GENRE Funk
REM DATE 1995
REM DISCID CD11D111
REM COMMENT "ExactAudioCopy v1.0b3"
PERFORMER "Swoop"
TITLE "The Woxo Principle"
FILE "01 Woxo Prelude .wav" WAVE
TRACK 01 AUDIO
TITLE "Woxo Prelude"
PERFORMER "Swoop"
INDEX 01 00:00:00
FILE "02 Living How I'm Living .wav" WAVE
TRACK 02 AUDIO
TITLE "Living How I'm Living"
PERFORMER "Swoop"
INDEX 01 00:00:00
FILE "03 Ephemera (Drop The Vibe) .wav" WAVE
TRACK 03 AUDIO
TITLE "Ephemera (Drop The Vibe)"
PERFORMER "Swoop"
INDEX 01 00:00:00
FILE "04 Rock Dog .wav" WAVE
TRACK 04 AUDIO
TITLE "Rock Dog"
PERFORMER "Swoop"
INDEX 01 00:00:00
FILE "05 Apple Eyes .wav" WAVE
TRACK 05 AUDIO
TITLE "Apple Eyes"
PERFORMER "Swoop"
INDEX 01 00:00:00
FILE "06 The Woxo Principle (Gammaphasabiosonicpsychobombalistaphonic) .wav" WAVE
TRACK 06 AUDIO
TITLE "The Woxo Principle (Gammaphasabiosonicpsychobombalistaphonic)"
PERFORMER "Swoop"
INDEX 01 00:00:00
FILE "07 Interlude- Laughing Stock .wav" WAVE
TRACK 07 AUDIO
TITLE "Interlude: Laughing Stock"
PERFORMER "Swoop"
INDEX 01 00:00:00
FILE "08 Shaka Uwaye La .wav" WAVE
TRACK 08 AUDIO
TITLE "Shaka Uwaye La"
PERFORMER "Swoop"
INDEX 01 00:00:00
FILE "09 Matter Of Time (Parts 1 & 2) .wav" WAVE
TRACK 09 AUDIO
TITLE "Matter Of Time (Parts 1 & 2)"
PERFORMER "Swoop"
INDEX 01 00:00:00
FILE "10 (It Could Happen) Any Day Now .wav" WAVE
TRACK 10 AUDIO
TITLE "(It Could Happen) Any Day Now"
PERFORMER "Swoop"
INDEX 01 00:00:00
FILE "11 How Much Do You Want My Love .wav" WAVE
TRACK 11 AUDIO
TITLE "How Much Do You Want My Love"
PERFORMER "Swoop"
INDEX 01 00:00:00
FILE "12 Do That To Me (One More Time) .wav" WAVE
TRACK 12 AUDIO
TITLE "Do That To Me (One More Time)"
PERFORMER "Swoop"
INDEX 01 00:00:00
FILE "13 93 Million Miles Away .wav" WAVE
TRACK 13 AUDIO
TITLE "93 Million Miles Away"
PERFORMER "Swoop"
INDEX 01 00:00:00
FILE "14 Neighbourhood Freak .wav" WAVE
TRACK 14 AUDIO
TITLE "Neighbourhood Freak"
PERFORMER "Swoop"
INDEX 01 00:00:00
FILE "15 Shalla Bal (Ballad(e) Of The Silver Surfer) .wav" WAVE
TRACK 15 AUDIO
TITLE "Shalla Bal (Ballad(e) Of The Silver Surfer)"
PERFORMER "Swoop"
INDEX 01 00:00:00
FILE "16 Interlude- The Breadman Suite .wav" WAVE
TRACK 16 AUDIO
TITLE "Interlude: The Breadman Suite"
PERFORMER "Swoop"
INDEX 01 00:00:00
FILE "17 Atomic Slam .wav" WAVE
TRACK 17 AUDIO
TITLE "Atomic Slam"
PERFORMER "Swoop"
INDEX 01 00:00:00
Приватный:
Нет (DHT включён)
Размер:
529.55 Мб (555,276,353 байт) » файлов: 31
Участники:
0 раздают, 0 качают (0 участников всего)
Внешние участники:
1 раздают, 0 качают (1 участников всего) [ Обновить ]
Есть вопросы - пишите личное сообщение пользователю M0p94ok.
13:37
76
Нет комментариев. Ваш будет первым!