Поиск

(Fusion, Jazz-Funk) [CD] Super Funky Sax (w/ David Sanborn, Michael Brecker, Ronnie Cuber) - Super Funky Sax - 1980 (2014 Japan Edition), FLAC (image+.cue), lossless

(Fusion, Jazz-Funk) [CD] Super Funky Sax (w/ David Sanborn, Michael Brecker, Ronnie Cuber) - Super Funky Sax - 1980 (2014 Japan Edition), FLAC (image+.cue), lossless
Треклист:
Super Funky Sax - Super Funky Sax
Жанр: Fusion, Jazz-Funk
Носитель: CD
Страна-производитель диска (релиза): Япония
Год издания: 2014
Издатель (лейбл): Electric Bird/King Records
Номер по каталогу: KICJ-2379
Страна исполнителя (группы): США
Аудиокодек: FLAC (*.flac)
Тип рипа: image+.cue
Битрейт аудио: lossless
Продолжительность: 37:14
Источник (релизер): kvapar (Спасибо Егору из PTZ)
Наличие сканов в содержимом раздачи: да
Треклист:
01. Super Groove (Matthews) - 7:00
02. Mika (Matthews) - 6:09
03. Noches Calientes (Matthews) - 5:20
04. Seditty (Matthews) - 5:10
05. Black River Rhapsody (Matthews) - 6:07
06. The Return of Zorro (Matthews) - 7:28
 
Лог создания рипа
Exact Audio Copy V1.0 beta 3 from 29. August 2011
Отчёт EAC об извлечении, выполненном 27. января 2015, 9:44
Super Funky Sax / Super Funky Sax
Дисковод: Optiarc DVD RW AD-7203S Adapter: 0 ID: 4
Режим чтения : Достоверность
Использование точного потока : Да
Отключение кэша аудио : Да
Использование указателей C2 : Нет
Коррекция смещения при чтении : 48
Способность читать области Lead-in и Lead-out : Нет
Заполнение пропущенных сэмплов тишиной : Да
Удаление блоков с тишиной в начале и конце : Нет
При вычислениях CRC использовались нулевые сэмплы : Да
Интерфейс : Встроенный Win32-интерфейс для Win NT/2000
Выходной формат : Пользовательский кодировщик
Выбранный битрейт : 128 kBit/s
Качество : Высокий
Добавление ID3-тега : Нет
Утилита сжатия : C:\Program Files (x86)\Exact Audio Copy\Flac\flac.exe
Дополнительные параметры : -V -8 -T "Date=%year%" -T "Genre=%genre%" %source%
TOC извлечённого CD
Трек | Старт | Длительность | Начальный сектор | Конечный сектор
---------------------------------------------------------------------
1 | 0:00.00 | 7:00.32 | 0 | 31531
2 | 7:00.32 | 6:08.38 | 31532 | 59169
3 | 13:08.70 | 5:20.11 | 59170 | 83180
4 | 18:29.06 | 5:10.32 | 83181 | 106462
5 | 23:39.38 | 6:06.49 | 106463 | 133961
6 | 29:46.12 | 7:27.68 | 133962 | 167554
Характеристики диапазона извлечения и сообщения об ошибках
Выбранный диапазон
Имя файла C:\Users\Администратор\Music\_New FLAC\Super Funky Sax - Super Funky Sax (1980)\Super Funky Sax - Super Funky Sax (1980).wav
Пиковый уровень 99.9 %
Скорость извлечения 3.5 X
Качество диапазона 100.0 %
CRC теста E3E91A8A
CRC копии E3E91A8A
Копирование... OK
Ошибок не произошло
AccurateRip: сводка
Трек 1 отсутствует в базе данных
Трек 2 отсутствует в базе данных
Трек 3 отсутствует в базе данных
Трек 4 отсутствует в базе данных
Трек 5 отсутствует в базе данных
Трек 6 отсутствует в базе данных
Ни одного трека нет в базе AccurateRip
Конец отчёта
==== Контрольная сумма отчёта 92BFFA3BA8DBBDC334191F36D756E882FEF99E9D09D0B938B9767759D4C874DF ====
 
Содержание индексной карты (.CUE)
REM GENRE Jazz
REM DATE 1980
REM DISCID 3E08BA06
REM COMMENT "ExactAudioCopy v1.0b3"
PERFORMER "Super Funky Sax"
TITLE "Super Funky Sax"
FILE "Super Funky Sax - Super Funky Sax.wav" WAVE
TRACK 01 AUDIO
TITLE "Super Groove"
PERFORMER "Super Funky Sax"
INDEX 01 00:00:00
TRACK 02 AUDIO
TITLE "Mika"
PERFORMER "Super Funky Sax"
INDEX 00 06:59:61
INDEX 01 07:00:32
TRACK 03 AUDIO
TITLE "Noches Calientes"
PERFORMER "Super Funky Sax"
INDEX 00 13:07:18
INDEX 01 13:08:70
TRACK 04 AUDIO
TITLE "Seditty"
PERFORMER "Super Funky Sax"
INDEX 00 18:27:51
INDEX 01 18:29:06
TRACK 05 AUDIO
TITLE "Black River Rhapsody"
PERFORMER "Super Funky Sax"
INDEX 00 23:38:36
INDEX 01 23:39:38
TRACK 06 AUDIO
TITLE "The Return of Zorro"
PERFORMER "Super Funky Sax"
INDEX 00 29:45:52
INDEX 01 29:46:12
 
Отчет CUETools
[CUETools log; Date: 28.01.2015 9:22:49; Version: 2.1.5]
[CTDB TOCID: 4dF49nEOHBvdugQjo1yU1K7zkWY-] found.
Track | CTDB Status
1 | (1/1) Accurately ripped
2 | (1/1) Accurately ripped
3 | (1/1) Accurately ripped
4 | (1/1) Accurately ripped
5 | (1/1) Accurately ripped
6 | (1/1) Accurately ripped
[AccurateRip ID: 0008e0e7-002f081f-3e08ba06] disk not present in database.
Track Peak [ CRC32 ] [W/O NULL] [ LOG ]
-- 99,9 [E3E91A8A] [C8BB7C5E] CRC32
01 99,9 [1397C70F] [EACB99ED]
02 99,9 [D6BEB9EF] [F7A80EDD]
03 99,9 [B83D14C2] [581307A9]
04 99,9 [45671B23] [A57F10C5]
05 99,9 [F90CD58B] [80A26926]
06 99,9 [4CB2B501] [24727839]
 
Об альбоме (сборнике)
Super funky sax, in a lineup that's also got plenty of great electric touches too – all put together by CTI/Kudu maestro Dave Matthews – and featuring David Sanborn, Michael Brecker, and Ronnie Cuber as the sax players in the title! The group's got a nice vibe that has the three horns taking off in then lead – then splitting out into well-stated solos – while grooves feature David Spinozza on electric guitar, and Don Grolnick and Cliff Carter on keyboards – all of whom, like the reedmen, still hang onto the warmer styles of 70s fusion. Titles are all Matthews originals – and include "Black River Rhapsody", "Super Groove", "Mika", "Noches Calientes", and "Seddity".
 
Состав
David Sanborn - alto saxophone
Michael Brecker - tenor saxophone
Ronnie Cuber - baritone saxophone
David Spinozza - electric guitar
Don Grolnick - electric piano
Cliff Carter - synthesizer
Neil Jayson - electric bass
Andy Newmark - drums
Sammy Figueroa - percussion
David Matthews - arranger
Recorded at Electric Lady Studio, New York in May, 1980.
Приватный:
Нет (DHT включён)
Размер:
242.72 Мб (254,508,250 байт) » файлов: 12
Участники:
0 раздают, 0 качают (0 участников всего)
Внешние участники:
1 раздают, 0 качают (1 участников всего) [ Обновить ]
Есть вопросы - пишите личное сообщение пользователю M0p94ok.
04:01
96
Нет комментариев. Ваш будет первым!