Поиск

(Fusion, Jazz-Funk) [CD] New York Liner (w/ David Matthews, Eric Gale, John Tropea, David Spinozza) - New York Liner - 1981 (2014 Japan Edition), FLAC (image+.cue), lossless

(Fusion, Jazz-Funk) [CD] New York Liner (w/ David Matthews, Eric Gale, John Tropea, David Spinozza) - New York Liner - 1981 (2014 Japan Edition), FLAC (image+.cue), lossless
Треклист:
New York Liner - New York Liner
Жанр: Fusion, Jazz-Funk
Носитель: CD
Страна-производитель диска (релиза): Япония
Год издания: 2014
Издатель (лейбл): Electric Bird/King Records
Номер по каталогу: KICJ-2380
Страна исполнителя (группы): США
Аудиокодек: FLAC (*.flac)
Тип рипа: image+.cue
Битрейт аудио: lossless
Продолжительность: 36:02
Источник (релизер): kvapar (Спасибо Егору из PTZ)
Наличие сканов в содержимом раздачи: да
Треклист:
01. Jamaica Man (Matthews) - 3:48
02. Diane (Matthews) - 4:57
03. Acoustic Fusion (Matthews) - 3:31
04. Father's Finger (Matthews) - 6:10
05. New York Guitar (Matthews) - 5:02
06. Mattie's Song (Matthews) - 5:32
07. Beale Street Boogie (Matthews) - 7:01
 
Лог создания рипа
Exact Audio Copy V1.0 beta 3 from 29. August 2011
Отчёт EAC об извлечении, выполненном 27. января 2015, 9:12
New York Liner / New York Liner
Дисковод: Optiarc DVD RW AD-7203S Adapter: 0 ID: 4
Режим чтения : Достоверность
Использование точного потока : Да
Отключение кэша аудио : Да
Использование указателей C2 : Нет
Коррекция смещения при чтении : 48
Способность читать области Lead-in и Lead-out : Нет
Заполнение пропущенных сэмплов тишиной : Да
Удаление блоков с тишиной в начале и конце : Нет
При вычислениях CRC использовались нулевые сэмплы : Да
Интерфейс : Встроенный Win32-интерфейс для Win NT/2000
Выходной формат : Пользовательский кодировщик
Выбранный битрейт : 128 kBit/s
Качество : Высокий
Добавление ID3-тега : Нет
Утилита сжатия : C:\Program Files (x86)\Exact Audio Copy\Flac\flac.exe
Дополнительные параметры : -V -8 -T "Date=%year%" -T "Genre=%genre%" %source%
TOC извлечённого CD
Трек | Старт | Длительность | Начальный сектор | Конечный сектор
---------------------------------------------------------------------
1 | 0:00.00 | 3:48.10 | 0 | 17109
2 | 3:48.10 | 4:57.03 | 17110 | 39387
3 | 8:45.13 | 3:30.49 | 39388 | 55186
4 | 12:15.62 | 6:10.11 | 55187 | 82947
5 | 18:25.73 | 5:02.02 | 82948 | 105599
6 | 23:28.00 | 5:32.22 | 105600 | 130521
7 | 29:00.22 | 7:01.35 | 130522 | 162131
Характеристики диапазона извлечения и сообщения об ошибках
Выбранный диапазон
Имя файла C:\Users\Администратор\Music\_New FLAC\New York Liner - New York Liner (1981)\New York Liner - New York Liner (1981).wav
Пиковый уровень 99.9 %
Скорость извлечения 3.5 X
Качество диапазона 100.0 %
CRC теста 548214C1
CRC копии 548214C1
Копирование... OK
Ошибок не произошло
AccurateRip: сводка
Трек 1 отсутствует в базе данных
Трек 2 отсутствует в базе данных
Трек 3 отсутствует в базе данных
Трек 4 отсутствует в базе данных
Трек 5 отсутствует в базе данных
Трек 6 отсутствует в базе данных
Трек 7 отсутствует в базе данных
Ни одного трека нет в базе AccurateRip
Конец отчёта
==== Контрольная сумма отчёта 6DB53400DA5C16D681FDFD4C2BCDA055D4942D4F67ED8BD081E4B971A6606D4E ====
 
Содержание индексной карты (.CUE)
REM GENRE Jazz
REM DATE 1981
REM DISCID 43087107
REM COMMENT "ExactAudioCopy v1.0b3"
PERFORMER "New York Liner"
TITLE "New York Liner"
FILE "New York Liner - New York Liner.wav" WAVE
TRACK 01 AUDIO
TITLE "Jamaica Man"
PERFORMER "New York Liner"
INDEX 01 00:00:00
TRACK 02 AUDIO
TITLE "Diane"
PERFORMER "New York Liner"
INDEX 00 03:46:67
INDEX 01 03:48:10
TRACK 03 AUDIO
TITLE "Acoustic Fusion"
PERFORMER "New York Liner"
INDEX 00 08:44:60
INDEX 01 08:45:13
TRACK 04 AUDIO
TITLE "Father's Finger"
PERFORMER "New York Liner"
INDEX 00 12:14:05
INDEX 01 12:15:62
TRACK 05 AUDIO
TITLE "New York Guitar"
PERFORMER "New York Liner"
INDEX 00 18:24:47
INDEX 01 18:25:73
TRACK 06 AUDIO
TITLE "Mattie's Song"
PERFORMER "New York Liner"
INDEX 00 23:26:43
INDEX 01 23:28:00
TRACK 07 AUDIO
TITLE "Beale Street Boogie"
PERFORMER "New York Liner"
INDEX 00 28:59:13
INDEX 01 29:00:22
 
Отчет CUETools
[CUETools log; Date: 28.01.2015 9:22:10; Version: 2.1.5]
[CTDB TOCID: abesKe4bCAkkPv5IN5_C7vSVXFs-] disk not present in database.
[AccurateRip ID: 00090bf7-00376c37-43087107] disk not present in database.
Track Peak [ CRC32 ] [W/O NULL] [ LOG ]
-- 99,9 [548214C1] [B4EC445F] CRC32
01 99,9 [A97AC427] [FFC76928]
02 99,9 [4C15CCE2] [0431312D]
03 99,9 [00F7C948] [67FA02C4]
04 99,9 [F5C015F8] [392A91AA]
05 99,9 [BBAE1C66] [0271FE30]
06 99,9 [7E2BAD40] [2DF87D85]
07 99,9 [3E5AC0E8] [C0602E43]
 
Состав
David Matthews - arranger, conductor
Eric Gale, John Tropea, David Spinozza - electric guitar, acoustic guitar
Paul Shaffer - keyboards
Neil Jayson - electric bass
Alan Schwartzberg - drums
David Charles - percussion
Recorded at A&R Studio, New York on May 6, 1981.
Приватный:
Нет (DHT включён)
Размер:
225.02 Мб (235,950,897 байт) » файлов: 12
Участники:
0 раздают, 0 качают (0 участников всего)
Внешние участники:
3 раздают, 1 качают (4 участников всего) [ Обновить ]
Скорость:
294.49 Кб/c 0/c
Есть вопросы - пишите личное сообщение пользователю M0p94ok.
04:02
65
Нет комментариев. Ваш будет первым!