Поиск

(Fusion, Jazz-Funk) [CD] David Matthews & The First Calls - Speed Demon - 1985 (2014 Japan Edition), FLAC (image+.cue), lossless

(Fusion, Jazz-Funk) [CD] David Matthews & The First Calls - Speed Demon - 1985 (2014 Japan Edition), FLAC (image+.cue), lossless
Треклист:
David Matthews & The First Calls - Speed Demon
Жанр: Fusion, Jazz-Funk
Носитель: CD
Страна-производитель диска (релиза): Япония
Год издания: 2014
Издатель (лейбл): Electric Bird/King Records
Номер по каталогу: KICJ-2387
Страна исполнителя (группы): США
Аудиокодек: FLAC (*.flac)
Тип рипа: image+.cue
Битрейт аудио: lossless
Продолжительность: 40:04
Источник (релизер): kvapar (Спасибо Егору из PTZ)
Наличие сканов в содержимом раздачи: да
Треклист:
01. La Tigra (Matthews) - 6:26
02. Spanish Night (Matthews) - 6:47
03. Speed Demon (Matthews) - 6:06
04. Doctor Rocker and Mr. Jive (Matthews) - 6:29
05. Bermuda High (Matthews) - 5:43
06. Mad Millie (Matthews) - 8:32
 
Лог создания рипа
Exact Audio Copy V1.0 beta 3 from 29. August 2011
Отчёт EAC об извлечении, выполненном 27. января 2015, 19:48
David Matthews & The First Calls / Speed Demon
Дисковод: Optiarc DVD RW AD-7203S Adapter: 0 ID: 4
Режим чтения : Достоверность
Использование точного потока : Да
Отключение кэша аудио : Да
Использование указателей C2 : Нет
Коррекция смещения при чтении : 48
Способность читать области Lead-in и Lead-out : Нет
Заполнение пропущенных сэмплов тишиной : Да
Удаление блоков с тишиной в начале и конце : Нет
При вычислениях CRC использовались нулевые сэмплы : Да
Интерфейс : Встроенный Win32-интерфейс для Win NT/2000
Выходной формат : Пользовательский кодировщик
Выбранный битрейт : 128 kBit/s
Качество : Высокий
Добавление ID3-тега : Нет
Утилита сжатия : C:\Program Files (x86)\Exact Audio Copy\Flac\flac.exe
Дополнительные параметры : -V -8 -T "Date=%year%" -T "Genre=%genre%" %source%
TOC извлечённого CD
Трек | Старт | Длительность | Начальный сектор | Конечный сектор
---------------------------------------------------------------------
1 | 0:00.00 | 6:26.37 | 0 | 28986
2 | 6:26.37 | 6:46.71 | 28987 | 59507
3 | 13:13.33 | 6:05.65 | 59508 | 86947
4 | 19:19.23 | 6:29.08 | 86948 | 116130
5 | 25:48.31 | 5:43.37 | 116131 | 141892
6 | 31:31.68 | 8:32.24 | 141893 | 180316
Характеристики диапазона извлечения и сообщения об ошибках
Выбранный диапазон
Имя файла C:\Users\Администратор\Music\_New FLAC\David Matthews\David Matthews & The First Calls - Speed Demon (1985)\David Matthews & The First Calls - Speed Demon (1985).wav
Пиковый уровень 99.9 %
Скорость извлечения 3.6 X
Качество диапазона 100.0 %
CRC теста B5C3E3BF
CRC копии B5C3E3BF
Копирование... OK
Ошибок не произошло
AccurateRip: сводка
Трек 1 отсутствует в базе данных
Трек 2 отсутствует в базе данных
Трек 3 отсутствует в базе данных
Трек 4 отсутствует в базе данных
Трек 5 отсутствует в базе данных
Трек 6 отсутствует в базе данных
Ни одного трека нет в базе AccurateRip
Конец отчёта
==== Контрольная сумма отчёта 3166053B3137B3FF5D7E7D031EF20D78FEC9992E144F72F04FA9A5C7D2726565 ====
 
Содержание индексной карты (.CUE)
REM GENRE Jazz
REM DATE 1985
REM DISCID 53096406
REM COMMENT "ExactAudioCopy v1.0b3"
PERFORMER "David Matthews & The First Calls"
TITLE "Speed Demon"
FILE "David Matthews & The First Calls - Speed Demon.wav" WAVE
TRACK 01 AUDIO
TITLE "La Tigra"
PERFORMER "David Matthews & The First Calls"
INDEX 01 00:00:00
TRACK 02 AUDIO
TITLE "Spanish Night"
PERFORMER "David Matthews & The First Calls"
INDEX 01 06:26:37
TRACK 03 AUDIO
TITLE "Speed Demon"
PERFORMER "David Matthews & The First Calls"
INDEX 01 13:13:33
TRACK 04 AUDIO
TITLE "Doctor Rocker and Mr. Jive"
PERFORMER "David Matthews & The First Calls"
INDEX 00 19:19:22
INDEX 01 19:19:23
TRACK 05 AUDIO
TITLE "Bermuda High"
PERFORMER "David Matthews & The First Calls"
INDEX 00 25:47:48
INDEX 01 25:48:31
TRACK 06 AUDIO
TITLE "Mad Millie"
PERFORMER "David Matthews & The First Calls"
INDEX 01 31:31:68
 
Отчет CUETools
[CUETools log; Date: 28.01.2015 9:20:29; Version: 2.1.5]
[CTDB TOCID: WQHTfveThj34vCDjl4lH7n1c3jQ-] found.
Track | CTDB Status
1 | (1/1) Accurately ripped
2 | (1/1) Accurately ripped
3 | (1/1) Accurately ripped
4 | (1/1) Accurately ripped
5 | (1/1) Accurately ripped
6 | (1/1) Accurately ripped
[AccurateRip ID: 00095d98-003206bb-53096406] disk not present in database.
Track Peak [ CRC32 ] [W/O NULL] [ LOG ]
-- 99,9 [B5C3E3BF] [AF4837BE] CRC32
01 99,9 [53184167] [96AF398D]
02 99,9 [79C2739A] [479C298F]
03 99,9 [045BD0AC] [3EE34F06]
04 99,9 [35C0933D] [C36133A3]
05 99,9 [4894C439] [3C2F459D]
06 99,9 [21D5A420] [FB309B2A]
 
Об альбоме (сборнике)
A lesser-known bit of funky fusion from David Matthews – a set that steps off his CTI/Kudu work of the 70s, with an update of that older jazz funk vibe! The group shows Matthews' continuing connection to the best players of this mode at the time – and features keyboards from Richard Tee and Cliff Carter, baritone from Ronnie Cuber, tenor from George Young, and trumpet from Lew Soloff – the last three of whom bring in some acoustic warmth next to the more electric vibe of the set. Titles are all originals by Matthews – and include "La Tigra", "Spanish Night", "Doctor Rocker & Mr Jive", and "Mad Millie".
 
Состав
David Matthews - piano, synthesizer, arranger
Lew Soloff - trumpet
George Young - tenor saxophone
Ronnie Cuber - baritone saxophone
Georg Wadenious - guitar
Richard Tee - electric piano
Cliff Carter - synthesizer
Mark Egan - bass
Dave Weckl - drums
Sammy Figueroa - percussion
Recorded at Giant Sound Studio, New York on July 3, 1985.
Приватный:
Нет (DHT включён)
Размер:
279.39 Мб (292,965,363 байт) » файлов: 12
Участники:
0 раздают, 0 качают (0 участников всего)
Внешние участники:
1 раздают, 0 качают (1 участников всего) [ Обновить ]
No seeders - write personal message to user M0p94ok. Нет сидеров - пишите личное сообщение пользователю M0p94ok.
04:03
72
Нет комментариев. Ваш будет первым!