Поиск

(Fusion, Jazz-Funk) [CD] French Toast (w/ Lew Soloff, Michel Camilo, Dave Weckl, Steve Gadd) - French Toast - 1984 (2014 Japan Edition), FLAC (image+.cue), lossless

(Fusion, Jazz-Funk) [CD] French Toast (w/ Lew Soloff, Michel Camilo, Dave Weckl, Steve Gadd) - French Toast - 1984 (2014 Japan Edition), FLAC (image+.cue), lossless
Треклист:
French Toast - French Toast
Жанр: Fusion, Jazz-Funk
Носитель: CD
Страна-производитель диска (релиза): Япония
Год издания: 2014
Издатель (лейбл): Electric Bird/King Records
Номер по каталогу: KICJ-2389
Страна исполнителя (группы): США
Аудиокодек: FLAC (*.flac)
Тип рипа: image+.cue
Битрейт аудио: lossless
Продолжительность: 44:09
Источник (релизер): kvapar (Спасибо Егору из PTZ)
Наличие сканов в содержимом раздачи: да
Треклист:
01. Why Not? (Camilo) - 5:46
02. Joe Cool (Mounsey) - 6:42
03. Ion You (Gordon) - 9:21
04. B. A. Express (Franzetti) - 6:24
05. Butter (Tribute to Quentin Jackson) (Dodgion) - 6:52
06. Calentando Man (Camilo) - 9:04
 
Лог создания рипа
Exact Audio Copy V1.0 beta 3 from 29. August 2011
Отчёт EAC об извлечении, выполненном 27. января 2015, 8:35
French Toast / French Toast
Дисковод: Optiarc DVD RW AD-7203S Adapter: 0 ID: 4
Режим чтения : Достоверность
Использование точного потока : Да
Отключение кэша аудио : Да
Использование указателей C2 : Нет
Коррекция смещения при чтении : 48
Способность читать области Lead-in и Lead-out : Нет
Заполнение пропущенных сэмплов тишиной : Да
Удаление блоков с тишиной в начале и конце : Нет
При вычислениях CRC использовались нулевые сэмплы : Да
Интерфейс : Встроенный Win32-интерфейс для Win NT/2000
Выходной формат : Пользовательский кодировщик
Выбранный битрейт : 128 kBit/s
Качество : Высокий
Добавление ID3-тега : Нет
Утилита сжатия : C:\Program Files (x86)\Exact Audio Copy\Flac\flac.exe
Дополнительные параметры : -V -8 -T "Date=%year%" -T "Genre=%genre%" %source%
TOC извлечённого CD
Трек | Старт | Длительность | Начальный сектор | Конечный сектор
---------------------------------------------------------------------
1 | 0:00.00 | 5:45.55 | 0 | 25929
2 | 5:45.55 | 6:41.53 | 25930 | 56057
3 | 12:27.33 | 9:20.59 | 56058 | 98116
4 | 21:48.17 | 6:24.27 | 98117 | 126943
5 | 28:12.44 | 6:51.43 | 126944 | 157811
6 | 35:04.12 | 9:04.29 | 157812 | 198640
Характеристики диапазона извлечения и сообщения об ошибках
Выбранный диапазон
Имя файла C:\Users\Администратор\Music\_New FLAC\French Toast - French Toast (1981)\French Toast - French Toast (1981).wav
Пиковый уровень 99.9 %
Скорость извлечения 3.7 X
Качество диапазона 100.0 %
CRC теста 67CDED8E
CRC копии 67CDED8E
Копирование... OK
Ошибок не произошло
AccurateRip: сводка
Трек 1 отсутствует в базе данных
Трек 2 отсутствует в базе данных
Трек 3 отсутствует в базе данных
Трек 4 отсутствует в базе данных
Трек 5 отсутствует в базе данных
Трек 6 отсутствует в базе данных
Ни одного трека нет в базе AccurateRip
Конец отчёта
==== Контрольная сумма отчёта 0B853DD24A3B040F06F6F16C6EA797D1C4F244C753CD9D13099CE60AFE4E13D0 ====
 
Содержание индексной карты (.CUE)
REM GENRE Jazz
REM DATE 1984
REM DISCID 460A5806
REM COMMENT "ExactAudioCopy v1.0b3"
PERFORMER "French Toast"
TITLE "French Toast"
FILE "French Toast - French Toast.wav" WAVE
TRACK 01 AUDIO
TITLE "Why Not?"
PERFORMER "French Toast"
INDEX 01 00:00:00
TRACK 02 AUDIO
TITLE "Joe Cool"
PERFORMER "French Toast"
INDEX 00 05:44:08
INDEX 01 05:45:55
TRACK 03 AUDIO
TITLE "Ion You"
PERFORMER "French Toast"
INDEX 00 12:24:62
INDEX 01 12:27:33
TRACK 04 AUDIO
TITLE "B. A. Express"
PERFORMER "French Toast"
INDEX 00 21:46:20
INDEX 01 21:48:17
TRACK 05 AUDIO
TITLE "Butter (Tribute to Quentin Jackson)"
PERFORMER "French Toast"
INDEX 00 28:11:26
INDEX 01 28:12:44
TRACK 06 AUDIO
TITLE "Calentando Man"
PERFORMER "French Toast"
INDEX 00 35:01:42
INDEX 01 35:04:12
 
Отчет CUETools
[CUETools log; Date: 28.01.2015 9:21:14; Version: 2.1.5]
[CTDB TOCID: ap2aUx72pR0Df6hSjD.3OgsVwpc-] found.
Track | CTDB Status
1 | (1/1) Accurately ripped
2 | (1/1) Accurately ripped
3 | (1/1) Accurately ripped
4 | (1/1) Accurately ripped
5 | (1/1) Accurately ripped
6 | (1/1) Accurately ripped
[AccurateRip ID: 000a1fce-0036b246-460a5806] disk not present in database.
Track Peak [ CRC32 ] [W/O NULL] [ LOG ]
-- 99,9 [67CDED8E] [A05CD1DB] CRC32
01 99,9 [694CA3BC] [B06E5925]
02 99,8 [36C8ACB0] [0FEE6259]
03 99,9 [7DB836FD] [B9F2C82C]
04 99,9 [F56C8777] [FABE642F]
05 99,9 [D88CB045] [F4D700F0]
06 99,9 [9B203F84] [ACE9B7CE]
 
Об альбоме (сборнике)
A lesser-known fusion set recorded for the Japanese Electric Bird label – but one that features great contributions from a host of American players – including Lew Soloff on trumpet, Jerry Dodgion on alto, and Peter Gordon on French horn – as well as Michel Camilo on piano! Calmilo did the arrangements with Gordon and Dodgion, and the overall vibe is more acoustic than usual efforts of this type from the label – especially given that there's a fair bit of extra percussion used alongside the drums, which brings in some occasional Latin touches. Titles include "Joe Cool", "Why Not", "Ion You", "BA Express", "Calentando Man", and "Butter".
 
Состав
Peter Gordon - French horn, arranger (#2,3)
Lew Soloff - trumpet
Jerry Dodgion - alto saxophone, arranger (#5)
Michel Camilo - piano, arranger (#1,6)
Anthony Jackson - bass
Dave Weckl, Steve Gadd (#3,4) - drums
Sammy Figueroa, Gordon Gottlieb - percussion
Carlos Franzetti - arranger (#4)
Recorded at Skyline Studio, New York on April 7-9, 1984.
Приватный:
Нет (DHT включён)
Размер:
278.81 Мб (292,357,220 байт) » файлов: 12
Участники:
0 раздают, 0 качают (0 участников всего)
Внешние участники:
9 раздают, 3 качают (12 участников всего) [ Обновить ]
Скорость:
301.57 Кб/c 0/c
Есть вопросы - пишите личное сообщение пользователю M0p94ok.
04:03
67
Нет комментариев. Ваш будет первым!