Поиск

(Fusion, Jazz-Funk) [CD] David Matthews Orchestra - Grand Connection - 1982 (2014 Japan Edition), FLAC (image+.cue), lossless

(Fusion, Jazz-Funk) [CD] David Matthews Orchestra - Grand Connection - 1982 (2014 Japan Edition), FLAC (image+.cue), lossless
Треклист:
David Matthews Orchestra - Grand Connection
Жанр: Fusion, Jazz-Funk
Носитель: CD
Страна-производитель диска (релиза): Япония
Год издания: 2014
Издатель (лейбл): Electric Bird/King Records
Номер по каталогу: KICJ-2374
Страна исполнителя (группы): США
Аудиокодек: FLAC (*.flac)
Тип рипа: image+.cue
Битрейт аудио: lossless
Продолжительность: 37:25
Источник (релизер): kvapar (Спасибо Егору из PTZ)
Наличие сканов в содержимом раздачи: да
Треклист:
01. Begin the Beguine (Porter) - 7:50
02. Soft and Funky (Matthews) - 4:36
03. Shuffle (Matthews) - 6:44
04. E.T. (Williams) - 9:28
05. Sugar (Turrentine) - 3:49
06. Sails of Your Soul (Washington) - 4:57
 
Лог создания рипа
Exact Audio Copy V1.0 beta 3 from 29. August 2011
Отчёт EAC об извлечении, выполненном 27. января 2015, 12:37
David Matthews Orchestra / Grand Connection
Дисковод: Optiarc DVD RW AD-7203S Adapter: 0 ID: 4
Режим чтения : Достоверность
Использование точного потока : Да
Отключение кэша аудио : Да
Использование указателей C2 : Нет
Коррекция смещения при чтении : 48
Способность читать области Lead-in и Lead-out : Нет
Заполнение пропущенных сэмплов тишиной : Да
Удаление блоков с тишиной в начале и конце : Нет
При вычислениях CRC использовались нулевые сэмплы : Да
Интерфейс : Встроенный Win32-интерфейс для Win NT/2000
Выходной формат : Пользовательский кодировщик
Выбранный битрейт : 128 kBit/s
Качество : Высокий
Добавление ID3-тега : Нет
Утилита сжатия : C:\Program Files (x86)\Exact Audio Copy\Flac\flac.exe
Дополнительные параметры : -V -8 -T "Date=%year%" -T "Genre=%genre%" %source%
TOC извлечённого CD
Трек | Старт | Длительность | Начальный сектор | Конечный сектор
---------------------------------------------------------------------
1 | 0:00.00 | 7:50.00 | 0 | 35249
2 | 7:50.00 | 4:35.58 | 35250 | 55932
3 | 12:25.58 | 6:44.34 | 55933 | 86266
4 | 19:10.17 | 9:28.14 | 86267 | 128880
5 | 28:38.31 | 3:49.29 | 128881 | 146084
6 | 32:27.60 | 4:57.08 | 146085 | 168367
Характеристики диапазона извлечения и сообщения об ошибках
Выбранный диапазон
Имя файла C:\Users\Администратор\Music\_New FLAC\David Matthews Orchestra - Grand Connection (1983)\David Matthews Orchestra - Grand Connection (1983).wav
Пиковый уровень 99.9 %
Скорость извлечения 3.5 X
Качество диапазона 100.0 %
CRC теста 5E075B14
CRC копии 5E075B14
Копирование... OK
Ошибок не произошло
AccurateRip: сводка
Трек 1 отсутствует в базе данных
Трек 2 отсутствует в базе данных
Трек 3 отсутствует в базе данных
Трек 4 отсутствует в базе данных
Трек 5 отсутствует в базе данных
Трек 6 отсутствует в базе данных
Ни одного трека нет в базе AccurateRip
Конец отчёта
==== Контрольная сумма отчёта 7A4899CF5D0DCDD72506057B65B1214DCCBB4F60FDF33CAD6F59390A26B28C1A ====
 
Содержание индексной карты (.CUE)
REM GENRE Jazz
REM DATE 1982
REM DISCID 4B08C406
REM COMMENT "ExactAudioCopy v1.0b3"
PERFORMER "David Matthews Orchestra"
TITLE "Grand Connection"
FILE "David Matthews Orchestra - Grand Connection.wav" WAVE
TRACK 01 AUDIO
TITLE "Begin the Beguine"
PERFORMER "David Matthews Orchestra"
INDEX 01 00:00:00
TRACK 02 AUDIO
TITLE "Soft and Funky"
PERFORMER "David Matthews Orchestra"
INDEX 01 07:50:00
TRACK 03 AUDIO
TITLE "Shuffle"
PERFORMER "David Matthews Orchestra"
INDEX 01 12:25:58
TRACK 04 AUDIO
TITLE "E.T."
PERFORMER "David Matthews Orchestra"
INDEX 00 19:08:62
INDEX 01 19:10:17
TRACK 05 AUDIO
TITLE "Sugar"
PERFORMER "David Matthews Orchestra"
INDEX 01 28:38:31
TRACK 06 AUDIO
TITLE "Sails of Your Soul"
PERFORMER "David Matthews Orchestra"
INDEX 00 32:26:61
INDEX 01 32:27:60
 
Отчет CUETools
[CUETools log; Date: 28.01.2015 9:20:50; Version: 2.1.5]
[CTDB TOCID: q_eoRSdj.XXjioIE50R12BAQ6II-] found.
Track | CTDB Status
1 | (1/1) Accurately ripped
2 | (1/1) Accurately ripped
3 | (1/1) Accurately ripped
4 | (1/1) Accurately ripped
5 | (1/1) Accurately ripped
6 | (1/1) Accurately ripped
[AccurateRip ID: 000978f0-003217ab-4b08c406] disk not present in database.
Track Peak [ CRC32 ] [W/O NULL] [ LOG ]
-- 99,9 [5E075B14] [19FFCA9F] CRC32
01 99,9 [FC50EAA9] [98576752]
02 99,9 [9D9BAEE5] [369D84E0]
03 99,9 [C6E7C315] [0754330C]
04 99,9 [7E40C241] [B102E1CB]
05 99,8 [A327A13B] [D1BF515B]
06 99,9 [44E98ED5] [BCB5891F]
 
Об альбоме (сборнике)
A grand connection from David Matthews – one of the keyboardist's fusion sets for the Japanese Electric Bird label, who gave Matthews a great showcase for his electric grooves in the 80s! The sound here is kind of an extension of the funky electric big band sides that Matthews scored for Kudu and CTI in the late 70s – smoother than his funky work from the early days, in the Japanese fusion style of the time, but with a bit more big band leanings – given a slightly larger lineup. Players include Grover Washington Jr on tenor and soprano sax, George Young on alto and flute, Gerry Niewood on tenor and flute, Joe Shepley on trumpet, Mark Egan on bass, and Earl Klugh on guitar – and titles include "Sugar", "Sails Of Your Soul", "Begin The Beguine", and "Soft & Funky".
 
Состав
David Matthews - electric piano, acoustic piano, arranger, conductor
George Young - alto saxophone, flute
Grover Washington, Jr. - tenor saxophone, soprano saxophone
Gerry Niewood - tenor saxophone, flute
Roger Rosenberg - baritone saxophone, flute
Joe Shepley, John Gatchell - trumpet, flugelhorn
Sam Burtis - trombone
Fred Griffen - French horn
Tony Price - tuba
Earl Klugh - acoustic guitar
Paul Metzke, Georg Wadenius - electric guitar
Mark Egan - electric bass
Jimmy Madison - drums
David Charles - percussion
Recorded at A&R Studios, New York on December 1-15, 1982.
Приватный:
Нет (DHT включён)
Размер:
232.65 Мб (243,947,794 байт) » файлов: 12
Участники:
0 раздают, 0 качают (0 участников всего)
Внешние участники:
5 раздают, 2 качают (7 участников всего) [ Обновить ]
Есть вопросы - пишите личное сообщение пользователю M0p94ok.
04:01
70
Нет комментариев. Ваш будет первым!