Поиск

(Fusion, Jazz-Funk) [CD] (David Matthews Presents) Grand Cross - Grand Cross - 1981 (2014 Japan Edition), FLAC (image+.cue), lossless

(Fusion, Jazz-Funk) [CD] (David Matthews Presents) Grand Cross - Grand Cross - 1981 (2014 Japan Edition), FLAC (image+.cue), lossless
Треклист:
(David Matthews Presents) Grand Cross - Grand Cross
Жанр: Fusion, Jazz-Funk
Носитель: CD
Страна-производитель диска (релиза): Япония
Год издания: 2014
Издатель (лейбл): Electric Bird/King Records
Номер по каталогу: KICJ-2373
Страна исполнителя (группы): США
Аудиокодек: FLAC (*.flac)
Тип рипа: image+.cue
Битрейт аудио: lossless
Продолжительность: 41:37
Источник (релизер): kvapar (Спасибо Егору из PTZ)
Наличие сканов в содержимом раздачи: да
Треклист:
01. Grand Cross (Smith) - 4:27
02. Kingston Connection (Matthews) - 5:54
03. Afro Sax (Matthews) - 4:38
04. Pipe Dream (Matthews) - 5:58
05. Movin' Man (Smith) - 5:30
06. For a Little Love Baby (Colucci-Matthews) - 3:20
07. Sambafrique (Smith) - 5:41
08. Star Island Drive (Matthews) - 6:09
 
Лог создания рипа
Exact Audio Copy V1.0 beta 3 from 29. August 2011
Отчёт EAC об извлечении, выполненном 27. января 2015, 13:34
Grand Cross / Grand Cross
Дисковод: Optiarc DVD RW AD-7203S Adapter: 0 ID: 4
Режим чтения : Достоверность
Использование точного потока : Да
Отключение кэша аудио : Да
Использование указателей C2 : Нет
Коррекция смещения при чтении : 48
Способность читать области Lead-in и Lead-out : Нет
Заполнение пропущенных сэмплов тишиной : Да
Удаление блоков с тишиной в начале и конце : Нет
При вычислениях CRC использовались нулевые сэмплы : Да
Интерфейс : Встроенный Win32-интерфейс для Win NT/2000
Выходной формат : Пользовательский кодировщик
Выбранный битрейт : 128 kBit/s
Качество : Высокий
Добавление ID3-тега : Нет
Утилита сжатия : C:\Program Files (x86)\Exact Audio Copy\Flac\flac.exe
Дополнительные параметры : -V -8 -T "Date=%year%" -T "Genre=%genre%" %source%
TOC извлечённого CD
Трек | Старт | Длительность | Начальный сектор | Конечный сектор
---------------------------------------------------------------------
1 | 0:00.00 | 4:26.70 | 0 | 20019
2 | 4:26.70 | 5:54.17 | 20020 | 46586
3 | 10:21.12 | 4:38.22 | 46587 | 67458
4 | 14:59.34 | 5:58.09 | 67459 | 94317
5 | 20:57.43 | 5:30.12 | 94318 | 119079
6 | 26:27.55 | 3:20.08 | 119080 | 134087
7 | 29:47.63 | 5:40.59 | 134088 | 159646
8 | 35:28.47 | 6:08.55 | 159647 | 187301
Характеристики диапазона извлечения и сообщения об ошибках
Выбранный диапазон
Имя файла C:\Users\Администратор\Music\_New FLAC\Grand Cross - Grand Cross (1981)\Grand Cross - Grand Cross (1981).wav
Пиковый уровень 99.9 %
Скорость извлечения 3.6 X
Качество диапазона 100.0 %
CRC теста F078EA04
CRC копии F078EA04
Копирование... OK
Ошибок не произошло
AccurateRip: сводка
Трек 1 отсутствует в базе данных
Трек 2 отсутствует в базе данных
Трек 3 отсутствует в базе данных
Трек 4 отсутствует в базе данных
Трек 5 отсутствует в базе данных
Трек 6 отсутствует в базе данных
Трек 7 отсутствует в базе данных
Трек 8 отсутствует в базе данных
Ни одного трека нет в базе AccurateRip
Конец отчёта
==== Контрольная сумма отчёта 792558C0C49493F37EAFDE611808217DC9615DA0D59638F3B78317543A4EBE7C ====
 
Содержание индексной карты (.CUE)
REM GENRE Jazz
REM DATE 1981
REM DISCID 6E09C108
REM COMMENT "ExactAudioCopy v1.0b3"
PERFORMER "Grand Cross"
TITLE "Grand Cross"
FILE "Grand Cross - Grand Cross.wav" WAVE
TRACK 01 AUDIO
TITLE "Grand Cross"
PERFORMER "Grand Cross"
INDEX 01 00:00:00
TRACK 02 AUDIO
TITLE "Kingston Connection"
PERFORMER "Grand Cross"
INDEX 00 04:25:11
INDEX 01 04:26:70
TRACK 03 AUDIO
TITLE "Afro Sax"
PERFORMER "Grand Cross"
INDEX 00 10:18:54
INDEX 01 10:21:12
TRACK 04 AUDIO
TITLE "Pipe Dream"
PERFORMER "Grand Cross"
INDEX 00 14:57:07
INDEX 01 14:59:34
TRACK 05 AUDIO
TITLE "Movin' Man"
PERFORMER "Grand Cross"
INDEX 00 20:55:13
INDEX 01 20:57:43
TRACK 06 AUDIO
TITLE "For a Little Love Baby"
PERFORMER "Grand Cross"
INDEX 00 26:25:64
INDEX 01 26:27:55
TRACK 07 AUDIO
TITLE "Sambafrique"
PERFORMER "Grand Cross"
INDEX 00 29:45:73
INDEX 01 29:47:63
TRACK 08 AUDIO
TITLE "Star Island Drive"
PERFORMER "Grand Cross"
INDEX 00 35:26:15
INDEX 01 35:28:47
 
Отчет CUETools
[CUETools log; Date: 28.01.2015 9:21:44; Version: 2.1.5]
[CTDB TOCID: so0KyF2jJlqGLW4wqVyt3vLMbjA-] found.
Track | CTDB Status
1 | (1/1) Accurately ripped
2 | (1/1) Accurately ripped
3 | (1/1) Accurately ripped
4 | (1/1) Accurately ripped
5 | (1/1) Accurately ripped
6 | (1/1) Accurately ripped
7 | (1/1) Accurately ripped
8 | (1/1) Accurately ripped
[AccurateRip ID: 000ca455-00547dc2-6e09c108] disk not present in database.
Track Peak [ CRC32 ] [W/O NULL] [ LOG ]
-- 99,9 [F078EA04] [0A89B230] CRC32
01 99,9 [1089691D] [A39005D2]
02 99,8 [59F440C7] [4A56E175]
03 99,9 [23A3E5A2] [E12CD151]
04 99,8 [131494EC] [FC70DAFE]
05 99,8 [FF43F2F3] [D003BC0D]
06 99,6 [9DDE4B92] [80ADA87E]
07 99,9 [8F8DF4AA] [C8B80921]
08 99,8 [9DD37BD6] [30FE282F]
 
Об альбоме (сборнике)
Sweet smooth fusion from the great David Matthews – that legendary talent that started out working with James Brown, then moved to CTI Records in the 70s, then kept going strong with fusion efforts like this one in the 80s! The style is a bit more polished than some of Matthews' earlier work, but still has all the right elements in place – and a great sense of production, given that the release was part of the excellent Electric Bird series from Japan. The lineup features lots of top-shelf players – including David Sanborn on alto, Michael Brecker on tenor, Randy Brecker on trumpet, and both Larry Carlton and John Tropea on guitars – and titles include the groover "Sambafrique", plus "Movin Man", "Grand Cross", and "Afro Sax".
 
Состав
David Matthews - electric piano, arranger, conductor
David Sanborn - alto saxophone
Michael Brecker - tenor saxophone
Randy Brecker - trumpet, flugelhorn
Larry Carlton, John Tropea - electric guitar
Cliff Carter - electric piano, mini moog, clavinet, prophet 5, vocals
Marcus Miller - electric bass
Steve Gadd - drums
Sammy Figueroa - percussion
Frank Floyd, Ullanda McCullough, Yvonne Lewis - background vocals
Recorded at A&R Studios, New York, and Room 335, Los Angeles, CA on August 19 - October 29, 1981.
Приватный:
Нет (DHT включён)
Размер:
261.67 Мб (274,382,454 байт) » файлов: 12
Участники:
0 раздают, 0 качают (0 участников всего)
Внешние участники:
2 раздают, 1 качают (3 участников всего) [ Обновить ]
Есть вопросы - пишите личное сообщение пользователю M0p94ok.
04:00
64
Нет комментариев. Ваш будет первым!