Поиск

(Fusion, Jazz-Funk) [CD] David Matthews & The Electric Birds - Cosmic City - 1980 (2014 Japan Edition), FLAC (image+.cue), lossless

(Fusion, Jazz-Funk) [CD] David Matthews & The Electric Birds - Cosmic City - 1980 (2014 Japan Edition), FLAC (image+.cue), lossless
Треклист:
David Matthews & The Electric Birds - Cosmic City
Жанр: Fusion, Jazz-Funk
Носитель: CD
Страна-производитель диска (релиза): Япония
Год издания: 2014
Издатель (лейбл): Electric Bird/King Records
Номер по каталогу: KICJ-2372
Страна исполнителя (группы): США
Аудиокодек: FLAC (*.flac)
Тип рипа: image+.cue
Битрейт аудио: lossless
Продолжительность: 35:36
Источник (релизер): kvapar (Спасибо Егору из PTZ)
Наличие сканов в содержимом раздачи: да
Треклист:
01. Cosmic City (Matthews) - 5:45
02. Show Me How You Make It Sexy (Sarasino-Matthews) - 3:54
03. Lonely Promises (Matthews) - 2:39
04. Good Time (Sarasino-Matthews) - 5:00
05. First Blood (Colucci-Matthews) - 3:00
06. American Road (Matthews) - 7:17
07. I Didn't Mean to Hurt You (Colucci-Matthews) - 3:38
08. Special Delivery (Ueda) - 4:22
 
Лог создания рипа
Exact Audio Copy V1.0 beta 3 from 29. August 2011
Отчёт EAC об извлечении, выполненном 27. января 2015, 11:11
David Matthews And The Electric Birds / Cosmic City
Дисковод: Optiarc DVD RW AD-7203S Adapter: 0 ID: 4
Режим чтения : Достоверность
Использование точного потока : Да
Отключение кэша аудио : Да
Использование указателей C2 : Нет
Коррекция смещения при чтении : 48
Способность читать области Lead-in и Lead-out : Нет
Заполнение пропущенных сэмплов тишиной : Да
Удаление блоков с тишиной в начале и конце : Нет
При вычислениях CRC использовались нулевые сэмплы : Да
Интерфейс : Встроенный Win32-интерфейс для Win NT/2000
Выходной формат : Пользовательский кодировщик
Выбранный битрейт : 128 kBit/s
Качество : Высокий
Добавление ID3-тега : Нет
Утилита сжатия : C:\Program Files (x86)\Exact Audio Copy\Flac\flac.exe
Дополнительные параметры : -V -8 -T "Date=%year%" -T "Genre=%genre%" %source%
TOC извлечённого CD
Трек | Старт | Длительность | Начальный сектор | Конечный сектор
---------------------------------------------------------------------
1 | 0:00.00 | 5:45.09 | 0 | 25883
2 | 5:45.09 | 3:54.28 | 25884 | 43461
3 | 9:39.37 | 2:38.74 | 43462 | 55385
4 | 12:18.36 | 5:00.35 | 55386 | 77920
5 | 17:18.71 | 2:59.63 | 77921 | 91408
6 | 20:18.59 | 7:17.12 | 91409 | 124195
7 | 27:35.71 | 3:38.34 | 124196 | 140579
8 | 31:14.30 | 4:21.41 | 140580 | 160195
Характеристики диапазона извлечения и сообщения об ошибках
Выбранный диапазон
Имя файла C:\Users\Администратор\Music\_New FLAC\David Matthews And The Electric Birds - Cosmic City (1980)\David Matthews And The Electric Birds - Cosmic City (1980).wav
Пиковый уровень 99.9 %
Скорость извлечения 3.5 X
Качество диапазона 100.0 %
CRC теста 3B45BBFA
CRC копии 3B45BBFA
Копирование... OK
Ошибок не произошло
AccurateRip: сводка
Трек 1 отсутствует в базе данных
Трек 2 отсутствует в базе данных
Трек 3 отсутствует в базе данных
Трек 4 отсутствует в базе данных
Трек 5 отсутствует в базе данных
Трек 6 отсутствует в базе данных
Трек 7 отсутствует в базе данных
Трек 8 отсутствует в базе данных
Ни одного трека нет в базе AccurateRip
Конец отчёта
==== Контрольная сумма отчёта C0A6AEB3998D181F60022E0BA84113DD27C35268E327927023DE62D7073FB422 ====
 
Содержание индексной карты (.CUE)
REM GENRE Jazz
REM DATE 1980
REM DISCID 5C085708
REM COMMENT "ExactAudioCopy v1.0b3"
PERFORMER "David Matthews & The Electric Birds"
TITLE "Cosmic City"
FILE "David Matthews & The Electric Birds - Cosmic City.wav" WAVE
TRACK 01 AUDIO
TITLE "Cosmic City"
PERFORMER "David Matthews & The Electric Birds"
INDEX 01 00:00:00
TRACK 02 AUDIO
TITLE "Show Me How You Make It Sexy"
PERFORMER "David Matthews & The Electric Birds"
INDEX 00 05:44:12
INDEX 01 05:45:09
TRACK 03 AUDIO
TITLE "Lonely Promises"
PERFORMER "David Matthews & The Electric Birds"
INDEX 00 09:38:57
INDEX 01 09:39:37
TRACK 04 AUDIO
TITLE "Good Time"
PERFORMER "David Matthews & The Electric Birds"
INDEX 00 12:17:73
INDEX 01 12:18:36
TRACK 05 AUDIO
TITLE "First Blood"
PERFORMER "David Matthews & The Electric Birds"
INDEX 00 17:17:08
INDEX 01 17:18:71
TRACK 06 AUDIO
TITLE "American Road"
PERFORMER "David Matthews & The Electric Birds"
INDEX 00 20:17:70
INDEX 01 20:18:59
TRACK 07 AUDIO
TITLE "I Didn't Mean to Hurt You"
PERFORMER "David Matthews & The Electric Birds"
INDEX 00 27:34:01
INDEX 01 27:35:71
TRACK 08 AUDIO
TITLE "Special Delivery"
PERFORMER "David Matthews & The Electric Birds"
INDEX 00 31:12:66
INDEX 01 31:14:30
 
Отчет CUETools
[CUETools log; Date: 28.01.2015 9:20:08; Version: 2.1.5]
[CTDB TOCID: Y1Ef4RFzubSFTLfOLkGJoxXle4U-] found.
Track | CTDB Status
1 | (1/1) Accurately ripped
2 | (1/1) Accurately ripped
3 | (1/1) Accurately ripped
4 | (1/1) Accurately ripped
5 | (1/1) Accurately ripped
6 | (1/1) Accurately ripped
7 | (1/1) Accurately ripped
8 | (1/1) Accurately ripped
[AccurateRip ID: 000af8ba-0048e63e-5c085708] disk not present in database.
Track Peak [ CRC32 ] [W/O NULL] [ LOG ]
-- 99,9 [3B45BBFA] [708D9473] CRC32
01 99,9 [D2D04099] [E6356216]
02 99,9 [41ADA5B7] [7F87A8C1]
03 85,8 [913B86DB] [C677E2EA]
04 94,1 [B483C944] [659D181E]
05 99,9 [001272DE] [1F14A88C]
06 99,9 [0F1CFF54] [01C2A980]
07 98,5 [488B01E9] [48BD9ADD]
08 99,9 [E4905606] [CABBE9BB]
 
Об альбоме (сборнике)
David Matthews made plenty of great funky jazz records in the American mainstream of the 70s – and after his big years on Kudu Records, he went slightly underground – and did some great work for Japanese labels like this! The album's got Matthews on electric piano, working with an all-star lineup that includes David Sanborn on alto and Mike Mainieri on vibes – in a style that's kind of an 80s update of his earlier grooves – jazz fusion influenced with plenty of soul, and a leaner approach to the groove that comes across in the percussion and keyboards. There's a bit of vocals on the record – kind of a vocal chorus along with the jazz – and the titles include "First Blood", "Cosmic City", "American Road", "I Didn't Mean To Hurt You", "Special Delivery", and "Good Time".
 
Состав
David Matthews - electric piano, arranger, conductor
David Sanborn - alto saxophone
Mike Mainieri - vibraphone
Jeff Mironov - electric guitar, acoustic guitar
Cliff Carter - electric piano, acoustic piano, oberheim, mini moog, vocals
Mark Egan - electric bass
Allan Schwartzberg - drums
Sammy Figueroa - percussion
Frank Floyd, Zak Sanders, Babi Floyd - background vocals
Recorded at A&R Studio on January 31 - Feburary 17, 1980.
Приватный:
Нет (DHT включён)
Размер:
238.67 Мб (250,258,453 байт) » файлов: 12
Участники:
0 раздают, 0 качают (0 участников всего)
Внешние участники:
2 раздают, 1 качают (3 участников всего) [ Обновить ]
Есть вопросы - пишите личное сообщение пользователю M0p94ok.
03:59
53
Нет комментариев. Ваш будет первым!