Поиск

(Fusion, Jazz-Funk) [CD] David Matthews & Electric Birds - Digital Love - 1979 (2014 Japan Edition), FLAC (image+.cue), lossless

(Fusion, Jazz-Funk) [CD] David Matthews & Electric Birds - Digital Love - 1979 (2014 Japan Edition), FLAC (image+.cue), lossless
Треклист:
David Matthews & Electric Birds - Digital Love
Жанр: Fusion, Jazz-Funk
Носитель: CD
Страна-производитель диска (релиза): Япония
Год издания: 2014
Издатель (лейбл): Electric Bird/King Records
Номер по каталогу: KICJ-2371
Страна исполнителя (группы): США
Аудиокодек: FLAC (*.flac)
Тип рипа: image+.cue
Битрейт аудио: lossless
Продолжительность: 44:24
Источник (релизер): kvapar (Спасибо Егору из PTZ)
Наличие сканов в содержимом раздачи: да
Треклист:
01. Media (Matthews) - 6:15
02. Digital Love (Matthews) - 6:11
03. Electric Flight (Matthews) - 6:07
04. I Don't Care Much for Love (Colucci-Matthews) - 4:20
05. 99 Parsecs (Matthews) - 5:34
06. Some Trunk Funk (Matthews) - 5:35
07. Funky Apple (Matthews) - 4:17
08. Song of the Setting Sun (Matthews) - 4:58
09. Media (Reprise) (Matthews) - 1:06
 
Лог создания рипа
Exact Audio Copy V1.0 beta 3 from 29. August 2011
Отчёт EAC об извлечении, выполненном 27. января 2015, 11:41
David Matthews And The Electric Birds / Digital Love
Дисковод: Optiarc DVD RW AD-7203S Adapter: 0 ID: 4
Режим чтения : Достоверность
Использование точного потока : Да
Отключение кэша аудио : Да
Использование указателей C2 : Нет
Коррекция смещения при чтении : 48
Способность читать области Lead-in и Lead-out : Нет
Заполнение пропущенных сэмплов тишиной : Да
Удаление блоков с тишиной в начале и конце : Нет
При вычислениях CRC использовались нулевые сэмплы : Да
Интерфейс : Встроенный Win32-интерфейс для Win NT/2000
Выходной формат : Пользовательский кодировщик
Выбранный битрейт : 128 kBit/s
Качество : Высокий
Добавление ID3-тега : Нет
Утилита сжатия : C:\Program Files (x86)\Exact Audio Copy\Flac\flac.exe
Дополнительные параметры : -V -8 -T "Date=%year%" -T "Genre=%genre%" %source%
TOC извлечённого CD
Трек | Старт | Длительность | Начальный сектор | Конечный сектор
---------------------------------------------------------------------
1 | 0:00.00 | 6:15.37 | 0 | 28161
2 | 6:15.37 | 6:10.67 | 28162 | 55978
3 | 12:26.29 | 6:07.25 | 55979 | 83528
4 | 18:33.54 | 4:20.20 | 83529 | 103048
5 | 22:53.74 | 5:34.36 | 103049 | 128134
6 | 28:28.35 | 5:35.10 | 128135 | 153269
7 | 34:03.45 | 4:16.41 | 153270 | 172510
8 | 38:20.11 | 4:58.13 | 172511 | 194873
9 | 43:18.24 | 1:06.04 | 194874 | 199827
Характеристики диапазона извлечения и сообщения об ошибках
Выбранный диапазон
Имя файла C:\Users\Администратор\Music\_New FLAC\David Matthews And The Electric Birds - Digital Love (1979)\David Matthews And The Electric Birds - Digital Love (1979).wav
Пиковый уровень 99.9 %
Скорость извлечения 3.7 X
Качество диапазона 100.0 %
CRC теста 470D0C73
CRC копии 470D0C73
Копирование... OK
Ошибок не произошло
AccurateRip: сводка
Трек 1 отсутствует в базе данных
Трек 2 отсутствует в базе данных
Трек 3 отсутствует в базе данных
Трек 4 отсутствует в базе данных
Трек 5 отсутствует в базе данных
Трек 6 отсутствует в базе данных
Трек 7 отсутствует в базе данных
Трек 8 отсутствует в базе данных
Трек 9 отсутствует в базе данных
Ни одного трека нет в базе AccurateRip
Конец отчёта
==== Контрольная сумма отчёта A55AD2E3DD1EF735DFC448A765103BF308A7A9FB8D07CB8E7D282A6EFD7A8E15 ====
 
Содержание индексной карты (.CUE)
REM GENRE Jazz
REM DATE 1979
REM DISCID 610A6809
REM COMMENT "ExactAudioCopy v1.0b3"
PERFORMER "David Matthews & Electric Birds"
TITLE "Digital Love"
FILE "David Matthews & Electric Birds - Digital Love.wav" WAVE
TRACK 01 AUDIO
TITLE "Media"
PERFORMER "David Matthews & Electric Birds"
INDEX 01 00:00:00
TRACK 02 AUDIO
TITLE "Digital Love"
PERFORMER "David Matthews & Electric Birds"
INDEX 00 06:13:71
INDEX 01 06:15:37
TRACK 03 AUDIO
TITLE "Electric Flight"
PERFORMER "David Matthews & Electric Birds"
INDEX 00 12:24:37
INDEX 01 12:26:29
TRACK 04 AUDIO
TITLE "I Don't Care Much for Love"
PERFORMER "David Matthews & Electric Birds"
INDEX 00 18:31:49
INDEX 01 18:33:54
TRACK 05 AUDIO
TITLE "99 Parsecs"
PERFORMER "David Matthews & Electric Birds"
INDEX 00 22:51:45
INDEX 01 22:53:74
TRACK 06 AUDIO
TITLE "Some Trunk Funk"
PERFORMER "David Matthews & Electric Birds"
INDEX 00 28:26:24
INDEX 01 28:28:35
TRACK 07 AUDIO
TITLE "Funky Apple"
PERFORMER "David Matthews & Electric Birds"
INDEX 00 34:01:67
INDEX 01 34:03:45
TRACK 08 AUDIO
TITLE "Song of the Setting Sun"
PERFORMER "David Matthews & Electric Birds"
INDEX 00 38:17:69
INDEX 01 38:20:11
TRACK 09 AUDIO
TITLE "Media (Reprise)"
PERFORMER "David Matthews & Electric Birds"
INDEX 01 43:18:24
 
Отчет CUETools
[CUETools log; Date: 28.01.2015 9:19:46; Version: 2.1.5]
[CTDB TOCID: 8TIkHlxe8e1uDxPTs.uoQhjuBik-] disk not present in database.
[AccurateRip ID: 00111469-007acbc5-610a6809] disk not present in database.
Track Peak [ CRC32 ] [W/O NULL] [ LOG ]
-- 99,9 [470D0C73] [2352B008] CRC32
01 99,9 [606B6C48] [2C1B0726]
02 99,9 [F5E6B487] [7C4404DD]
03 99,9 [F64F6A99] [BDD23D45]
04 99,9 [01858D87] [DE48D9C9]
05 99,9 [43FFA361] [2F0D09BD]
06 99,9 [EA39C6A5] [8450DC7E]
07 99,9 [1DBB0429] [E3F170B0]
08 99,8 [C5851B13] [FDCFF182]
09 99,9 [A416BB90] [B6DB7AA8]
 
Об альбоме (сборнике)
Fast and funky fusion from David Matthews – building off the sound of his later Kudu recordings with a sweet electric groove! The album's got a pretty full approach overall – with Matthews on electric piano, and directing a large group of players that includes Mike Maineri, Michael Brecker, Jon Faddis, Shunzo Ohno, and Ronnie Cuber – and a number of tracks feature a vocal chorus that includes Ullanda McCullough and Yvonne Lewis. The overall style is slick, but not in a bad way – and Matthews more than meets the Japanese fusion sound head to head for this non-US release from the time! Titles include "Electric Flight", "Some Trunk Funk", "Funky Apple", "I Don't Care Much For Love", "Song Of The Setting Sun", and "Media".
 
Состав
David Matthews - electric piano, arranger, conductor
Mike Mainieri - vibraphone
Michael Brecker - tenor saxophone
Shunzo Ohno - trumpet
Randy Brecker - trumpet, flugelhorn
Jon Faddis - trumpet
Mikio Masuda - electric piano
Hiram Bullock - electric guitar
Clifford Carter - electric piano, acoustic piano, mini moog, oberheim, vocals (#4)
Andy Newmark - drums
Mark Egan - electric bass
Ronnie Cuber - baritone saxophone
Sammy Figeroa - percussion
Frank Floyd, Yvonne Lewis, Ullanda McCullough - background vocals
David Nadien, Led Kahn, Harold Kohan, Max Pollikoff, John Pintaualli, Guy Lumia, Lamarr Alsop, Barry Finclair - strings
Recorded at Electric Lady Studios, New York on May 30 - July 24, 1979.
Приватный:
Нет (DHT включён)
Размер:
295.48 Мб (309,828,104 байт) » файлов: 12
Участники:
0 раздают, 0 качают (0 участников всего)
Внешние участники:
3 раздают, 1 качают (4 участников всего) [ Обновить ]
Есть вопросы - пишите личное сообщение пользователю M0p94ok.
03:58
63
Нет комментариев. Ваш будет первым!