Поиск

(Fusion, Jazz-Funk) [CD] John Lee & Gerry Brown - Still Can't Say Enough (1976) - 2013, FLAC (tracks+.cue), lossless

(Fusion, Jazz-Funk) [CD] John Lee & Gerry Brown - Still Can't Say Enough (1976) - 2013, FLAC (tracks+.cue), lossless
Треклист:
John Lee & Gerry Brown - Still Can't Say Enough (1976) Жанр: Fusion, Jazz-Funk
Носитель: CD
Страна-производитель диска (релиза): Japan
Год издания: 2013
Издатель (лейбл): Blue Note/EMI Music Japan
Номер по каталогу: TOCJ-50546
Аудиокодек: FLAC (*.flac)
Тип рипа: tracks+.cue
Битрейт аудио: lossless
Продолжительность: 41:17
Rip by ruskaval
Наличие сканов в содержимом раздачи: да
Треклист:
01. Freeze It Up (4:52)
02. Love The Way You Make Me Feel (5:09)
03. Rise On (6:16)
04. Funky Row (3:46)
05. Talkin' 'Bout The Right One (5:12)
06. Strut 'N' Get Up (4:42)
07. Breakin' (4:27)
08. Down The Way (5:25)
09. Out The Box (1:29)
Personnel:
John Lee - bass, percussion, keyboards
Gerry Brown - drums, percussion
Jon Faddis - trumpet
Randy Brecker - flugelhorn, trumpet
Michael Brecker, Ernie Watts - sax tenor
David Sanborn, Gary Bartz - sax alto
Ronnie Cuber - bar sax
Barry Rodgers - trombone
Ray Gomez, Reggie Lucas - guitar
Harold Ivory Williams IV - organ & grand piano
Ian Underwood - synthesizer
Hubert Eaves II, Rob Franken - keyboards
Mtume - percussion, vocals
Cheryl Alexander, Tawatha Agee, Donald Smith - vocals
Recorded in August 1976. 
 
 
Лог создания рипа
Exact Audio Copy V1.0 beta 4 from 7. December 2014
EAC extraction logfile from 25. February 2015, 17:45
John Lee & Gerry Brown / Still Can't Say Enough
Used drive : TSSTcorpCDDVDW SE-208DB Adapter: 1 ID: 1
Read mode : Secure
Utilize accurate stream : Yes
Defeat audio cache : Yes
Make use of C2 pointers : No
Read offset correction : 6
Overread into Lead-In and Lead-Out : No
Fill up missing offset samples with silence : Yes
Delete leading and trailing silent blocks : No
Null samples used in CRC calculations : Yes
Used interface : Native Win32 interface for Win NT & 2000
Gap handling : Appended to previous track
Used output format : User Defined Encoder
Selected bitrate : 1024 kBit/s
Quality : High
Add ID3 tag : No
Command line compressor : C:\Program Files (x86)\FLAC Frontend\tools\flac.exe
Additional command line options : -8 -V -T "ARTIST=%artist%" -T "TITLE=%title%" -T "ALBUM=%albumtitle%" -T "DATE=%year%" -T "TRACKNUMBER=%tracknr%" -T "TOTALTRACKS=%numtracks%" -T "GENRE=%genre%" -T "ALBUMARTIST=%albumartist%" -T "ALBUM ARTIST=%albumartist%" -T "COMMENT=EAC Secure Mode, Test & Copy, AccurateRip, FLAC -8" %source%
TOC of the extracted CD
Track | Start | Length | Start sector | End sector
---------------------------------------------------------
1 | 0:00.00 | 4:52.05 | 0 | 21904
2 | 4:52.05 | 5:09.24 | 21905 | 45103
3 | 10:01.29 | 6:15.39 | 45104 | 73267
4 | 16:16.68 | 3:46.30 | 73268 | 90247
5 | 20:03.23 | 5:11.66 | 90248 | 113638
6 | 25:15.14 | 4:41.57 | 113639 | 134770
7 | 29:56.71 | 4:27.06 | 134771 | 154801
8 | 34:24.02 | 5:24.63 | 154802 | 179164
9 | 39:48.65 | 1:28.45 | 179165 | 185809
Track 1
Filename D:\_EAC\John Lee & Gerry Brown - Still Can't Say Enough (1976) {2013 Japanese BNLA Series 24-bit Remaster}\01 - Freeze It Up.wav
Pre-gap length 0:00:02.00
Peak level 99.8 %
Extraction speed 1.0 X
Track quality 100.0 %
Test CRC 32FEAFE8
Copy CRC 32FEAFE8
Accurately ripped (confidence 2) [63123ED1] (AR v2)
Copy OK
Track 2
Filename D:\_EAC\John Lee & Gerry Brown - Still Can't Say Enough (1976) {2013 Japanese BNLA Series 24-bit Remaster}\02 - Love The Way You Make Me Feel.wav
Pre-gap length 0:00:00.34
Peak level 98.8 %
Extraction speed 1.2 X
Track quality 100.0 %
Test CRC A1CF52F7
Copy CRC A1CF52F7
Accurately ripped (confidence 2) [3CF83CF5] (AR v2)
Copy OK
Track 3
Filename D:\_EAC\John Lee & Gerry Brown - Still Can't Say Enough (1976) {2013 Japanese BNLA Series 24-bit Remaster}\03 - Rise On.wav
Pre-gap length 0:00:00.43
Peak level 100.0 %
Extraction speed 1.3 X
Track quality 100.0 %
Test CRC 3DF9C275
Copy CRC 3DF9C275
Accurately ripped (confidence 2) [5291BCA3] (AR v2)
Copy OK
Track 4
Filename D:\_EAC\John Lee & Gerry Brown - Still Can't Say Enough (1976) {2013 Japanese BNLA Series 24-bit Remaster}\04 - Funky Row.wav
Pre-gap length 0:00:01.02
Peak level 98.8 %
Extraction speed 1.1 X
Track quality 99.9 %
Test CRC 443D0105
Copy CRC 443D0105
Accurately ripped (confidence 2) [1C242083] (AR v2)
Copy OK
Track 5
Filename D:\_EAC\John Lee & Gerry Brown - Still Can't Say Enough (1976) {2013 Japanese BNLA Series 24-bit Remaster}\05 - Talkin' 'Bout The Right One.wav
Pre-gap length 0:00:01.48
Peak level 100.0 %
Extraction speed 1.5 X
Track quality 100.0 %
Test CRC 1EE7509F
Copy CRC 1EE7509F
Accurately ripped (confidence 2) [1FD0F80C] (AR v2)
Copy OK
Track 6
Filename D:\_EAC\John Lee & Gerry Brown - Still Can't Say Enough (1976) {2013 Japanese BNLA Series 24-bit Remaster}\06 - Strut 'N' Get Up.wav
Peak level 99.5 %
Extraction speed 1.5 X
Track quality 100.0 %
Test CRC BFC3C433
Copy CRC BFC3C433
Accurately ripped (confidence 2) [F8053C84] (AR v2)
Copy OK
Track 7
Filename D:\_EAC\John Lee & Gerry Brown - Still Can't Say Enough (1976) {2013 Japanese BNLA Series 24-bit Remaster}\07 - Breakin'.wav
Pre-gap length 0:00:00.43
Peak level 99.1 %
Extraction speed 1.6 X
Track quality 100.0 %
Test CRC AAD19960
Copy CRC AAD19960
Accurately ripped (confidence 2) [75EEA5C6] (AR v2)
Copy OK
Track 8
Filename D:\_EAC\John Lee & Gerry Brown - Still Can't Say Enough (1976) {2013 Japanese BNLA Series 24-bit Remaster}\08 - Down The Way.wav
Pre-gap length 0:00:00.43
Peak level 100.0 %
Extraction speed 1.7 X
Track quality 100.0 %
Test CRC 357083CC
Copy CRC 357083CC
Accurately ripped (confidence 2) [4190698C] (AR v2)
Copy OK
Track 9
Filename D:\_EAC\John Lee & Gerry Brown - Still Can't Say Enough (1976) {2013 Japanese BNLA Series 24-bit Remaster}\09 - Out The Box.wav
Pre-gap length 0:00:00.43
Peak level 100.0 %
Extraction speed 1.3 X
Track quality 100.0 %
Test CRC 3D2C2678
Copy CRC 3D2C2678
Accurately ripped (confidence 2) [6B0CD025] (AR v2)
Copy OK
All tracks accurately ripped
No errors occurred
End of status report
==== Log checksum A0D041DAC89E6BC522387E0C5F85C59A11BFBC098774CD9C293A8D6A77D552EC ====
 
Содержание индексной карты (.CUE)
REM GENRE Jazz
REM DATE 1976
REM DISCID 7D09AD09
REM COMMENT "ExactAudioCopy v1.0b4"
PERFORMER "John Lee & Gerry Brown"
TITLE "Still Can't Say Enough"
FILE "01 - Freeze It Up.wav" WAVE
TRACK 01 AUDIO
TITLE "Freeze It Up"
PERFORMER "John Lee & Gerry Brown"
INDEX 01 00:00:00
TRACK 02 AUDIO
TITLE "Love The Way You Make Me Feel"
PERFORMER "John Lee & Gerry Brown"
INDEX 00 04:51:46
FILE "02 - Love The Way You Make Me Feel.wav" WAVE
INDEX 01 00:00:00
TRACK 03 AUDIO
TITLE "Rise On"
PERFORMER "John Lee & Gerry Brown"
INDEX 00 05:08:56
FILE "03 - Rise On.wav" WAVE
INDEX 01 00:00:00
TRACK 04 AUDIO
TITLE "Funky Row"
PERFORMER "John Lee & Gerry Brown"
INDEX 00 06:14:37
FILE "04 - Funky Row.wav" WAVE
INDEX 01 00:00:00
TRACK 05 AUDIO
TITLE "Talkin' 'Bout The Right One"
PERFORMER "John Lee & Gerry Brown"
INDEX 00 03:44:57
FILE "05 - Talkin' 'Bout The Right One.wav" WAVE
INDEX 01 00:00:00
FILE "06 - Strut 'N' Get Up.wav" WAVE
TRACK 06 AUDIO
TITLE "Strut 'N' Get Up"
PERFORMER "John Lee & Gerry Brown"
INDEX 01 00:00:00
TRACK 07 AUDIO
TITLE "Breakin'"
PERFORMER "John Lee & Gerry Brown"
INDEX 00 04:41:14
FILE "07 - Breakin'.wav" WAVE
INDEX 01 00:00:00
TRACK 08 AUDIO
TITLE "Down The Way"
PERFORMER "John Lee & Gerry Brown"
INDEX 00 04:26:38
FILE "08 - Down The Way.wav" WAVE
INDEX 01 00:00:00
TRACK 09 AUDIO
TITLE "Out The Box"
PERFORMER "John Lee & Gerry Brown"
INDEX 00 05:24:20
FILE "09 - Out The Box.wav" WAVE
INDEX 01 00:00:00
Приватный:
Нет (DHT включён)
Размер:
447.18 Мб (468,904,770 байт) » файлов: 27
Участники:
0 раздают, 0 качают (0 участников всего)
Внешние участники:
2 раздают, 1 качают (3 участников всего) [ Обновить ]
Есть вопросы - пишите личное сообщение пользователю M0p94ok.
04:26
60
Нет комментариев. Ваш будет первым!