Поиск

(Soul, Funk, R&B) [CD] Ann Nesby - Living My Life - 2014, FLAC (tracks+.cue), lossless

(Soul, Funk, R&B) [CD] Ann Nesby - Living My Life - 2014, FLAC (tracks+.cue), lossless
Треклист:
Ann Nesby - Living My Life
Жанр: Soul, Funk, R&B
Носитель: CD
Год издания: 2014
Издатель (лейбл): Arrow Records
Номер по каталогу: A36129
Аудиокодек: FLAC (*.flac)
Тип рипа: tracks+.cue
Битрейт аудио: lossless
Продолжительность: 45:00
Rip by JET 1
Наличие сканов в содержимом раздачи: да
Треклист:
01. Living My Life (4:23)
02. Remember (3:37)
03. I'm Through (5:03)
04. Let It Be (3:37)
05. Point Of View (4:16)
06. This Is The Love (4:02)
07. Cannonball (3:50)
08. Higher (3:35)
09. Alright (3:34)
10. In The Morning (3:52)
11. I See Beyond (5:10)
 
 
Лог создания рипа
Exact Audio Copy V1.0 beta 3 from 29. August 2011
EAC extraction logfile from 28. February 2015, 14:43
Ann Nesby / Living My Life
Used drive : GENERIC CDRCB05 Adapter: 4 ID: 0
Read mode : Secure
Utilize accurate stream : Yes
Defeat audio cache : Yes
Make use of C2 pointers : No
Read offset correction : 102
Overread into Lead-In and Lead-Out : No
Fill up missing offset samples with silence : Yes
Delete leading and trailing silent blocks : No
Null samples used in CRC calculations : Yes
Used interface : Native Win32 interface for Win NT & 2000
Gap handling : Appended to previous track
Used output format : User Defined Encoder
Selected bitrate : 1024 kBit/s
Quality : High
Add ID3 tag : No
Command line compressor : C:\Program Files\FLAC\flac.exe
Additional command line options : -8 -V -T "ARTIST=%artist%" -T "TITLE=%title%" -T "ALBUM=%albumtitle%" -T "DATE=%year%" -T "TRACKNUMBER=%tracknr%" -T "GENRE=%genre%" -T "PERFORMER=%albuminterpret%" -T "COMPOSER=%composer%" %haslyrics%--tag-from-file=LYRICS="%lyricsfile%"%haslyrics% -T "ALBUMARTIST=%albumartist%" -T "DISCNUMBER=%cdnumber%" -T "TOTALDISCS=%totalcds%" -T "TOTALTRACKS=%numtracks%" -T "COMMENT=%comment%" %source% -o %dest%
TOC of the extracted CD
Track | Start | Length | Start sector | End sector
---------------------------------------------------------
1 | 0:00.00 | 4:22.48 | 0 | 19697
2 | 4:22.48 | 3:37.09 | 19698 | 35981
3 | 7:59.57 | 5:03.09 | 35982 | 58715
4 | 13:02.66 | 3:37.11 | 58716 | 75001
5 | 16:40.02 | 4:16.10 | 75002 | 94211
6 | 20:56.12 | 4:02.05 | 94212 | 112366
7 | 24:58.17 | 3:49.50 | 112367 | 129591
8 | 28:47.67 | 3:35.33 | 129592 | 145749
9 | 32:23.25 | 3:34.36 | 145750 | 161835
10 | 35:57.61 | 3:52.34 | 161836 | 179269
11 | 39:50.20 | 5:10.08 | 179270 | 202527
Track 1
Filename I:\0\Ann Nesby - Living My Life (2014)\01 - Living My Life.wav
Pre-gap length 0:00:02.00
Peak level 98.8 %
Extraction speed 2.4 X
Track quality 100.0 %
Test CRC FA742E48
Copy CRC FA742E48
Track not present in AccurateRip database
Copy OK
Track 2
Filename I:\0\Ann Nesby - Living My Life (2014)\02 - Remember.wav
Pre-gap length 0:00:00.63
Peak level 98.8 %
Extraction speed 2.2 X
Track quality 99.9 %
Test CRC B6A451E3
Copy CRC B6A451E3
Track not present in AccurateRip database
Copy OK
Track 3
Filename I:\0\Ann Nesby - Living My Life (2014)\03 - I'm Through.wav
Peak level 98.8 %
Extraction speed 2.4 X
Track quality 99.9 %
Test CRC 1E4EB581
Copy CRC 1E4EB581
Track not present in AccurateRip database
Copy OK
Track 4
Filename I:\0\Ann Nesby - Living My Life (2014)\04 - Let It Be.wav
Peak level 98.8 %
Extraction speed 2.4 X
Track quality 99.9 %
Test CRC 7872D0A1
Copy CRC 7872D0A1
Track not present in AccurateRip database
Copy OK
Track 5
Filename I:\0\Ann Nesby - Living My Life (2014)\05 - Point Of View.wav
Pre-gap length 0:00:01.15
Peak level 98.8 %
Extraction speed 3.2 X
Track quality 100.0 %
Test CRC BF972053
Copy CRC BF972053
Track not present in AccurateRip database
Copy OK
Track 6
Filename I:\0\Ann Nesby - Living My Life (2014)\06 - This Is The Love.wav
Pre-gap length 0:00:01.73
Peak level 85.3 %
Extraction speed 3.5 X
Track quality 100.0 %
Test CRC 5C4BCFCC
Copy CRC 5C4BCFCC
Track not present in AccurateRip database
Copy OK
Track 7
Filename I:\0\Ann Nesby - Living My Life (2014)\07 - Cannonball.wav
Pre-gap length 0:00:01.19
Peak level 98.8 %
Extraction speed 3.6 X
Track quality 100.0 %
Test CRC 2E86C631
Copy CRC 2E86C631
Track not present in AccurateRip database
Copy OK
Track 8
Filename I:\0\Ann Nesby - Living My Life (2014)\08 - Higher.wav
Pre-gap length 0:00:01.64
Peak level 98.8 %
Extraction speed 3.2 X
Track quality 99.9 %
Test CRC D3FE1979
Copy CRC D3FE1979
Track not present in AccurateRip database
Copy OK
Track 9
Filename I:\0\Ann Nesby - Living My Life (2014)\09 - Alright.wav
Pre-gap length 0:00:01.12
Peak level 98.8 %
Extraction speed 3.3 X
Track quality 99.9 %
Test CRC A0822FF6
Copy CRC A0822FF6
Track not present in AccurateRip database
Copy OK
Track 10
Filename I:\0\Ann Nesby - Living My Life (2014)\10 - In The Morning.wav
Pre-gap length 0:00:00.09
Peak level 98.8 %
Extraction speed 4.0 X
Track quality 100.0 %
Test CRC BBED405A
Copy CRC BBED405A
Track not present in AccurateRip database
Copy OK
Track 11
Filename I:\0\Ann Nesby - Living My Life (2014)\11 - I See Beyond.wav
Pre-gap length 0:00:01.58
Peak level 98.8 %
Extraction speed 3.9 X
Track quality 99.9 %
Test CRC 073E0782
Copy CRC 073E0782
Track not present in AccurateRip database
Copy OK
None of the tracks are present in the AccurateRip database
No errors occurred
End of status report
==== Log checksum AF25EDF8B47FF92B5BA242E40C825A3FE1CE38EC282BA8F245E4DD5BD726179F ====
 
Содержание индексной карты (.CUE)
REM GENRE Soul
REM DATE 2014
REM DISCID 8E0A8C0B
REM COMMENT "ExactAudioCopy v1.0b3"
PERFORMER "Ann Nesby"
TITLE "Living My Life"
FILE "01 - Living My Life.wav" WAVE
TRACK 01 AUDIO
TITLE "Living My Life"
PERFORMER "Ann Nesby"
INDEX 01 00:00:00
TRACK 02 AUDIO
TITLE "Remember"
PERFORMER "Ann Nesby"
INDEX 00 04:21:60
FILE "02 - Remember.wav" WAVE
INDEX 01 00:00:00
FILE "03 - I'm Through.wav" WAVE
TRACK 03 AUDIO
TITLE "I'm Through"
PERFORMER "Ann Nesby"
INDEX 01 00:00:00
FILE "04 - Let It Be.wav" WAVE
TRACK 04 AUDIO
TITLE "Let It Be"
PERFORMER "Ann Nesby"
INDEX 01 00:00:00
TRACK 05 AUDIO
TITLE "Point Of View"
PERFORMER "Ann Nesby"
INDEX 00 03:35:71
FILE "05 - Point Of View.wav" WAVE
INDEX 01 00:00:00
TRACK 06 AUDIO
TITLE "This Is The Love"
PERFORMER "Ann Nesby"
INDEX 00 04:14:12
FILE "06 - This Is The Love.wav" WAVE
INDEX 01 00:00:00
TRACK 07 AUDIO
TITLE "Cannonball"
PERFORMER "Ann Nesby"
INDEX 00 04:00:61
FILE "07 - Cannonball.wav" WAVE
INDEX 01 00:00:00
TRACK 08 AUDIO
TITLE "Higher"
PERFORMER "Ann Nesby"
INDEX 00 03:47:61
FILE "08 - Higher.wav" WAVE
INDEX 01 00:00:00
TRACK 09 AUDIO
TITLE "Alright"
PERFORMER "Ann Nesby"
INDEX 00 03:34:21
FILE "09 - Alright.wav" WAVE
INDEX 01 00:00:00
TRACK 10 AUDIO
TITLE "In The Morning"
PERFORMER "Ann Nesby"
INDEX 00 03:34:27
FILE "10 - In The Morning.wav" WAVE
INDEX 01 00:00:00
TRACK 11 AUDIO
TITLE "I See Beyond"
PERFORMER "Ann Nesby"
INDEX 00 03:50:51
FILE "11 - I See Beyond.wav" WAVE
INDEX 01 00:00:00
Приватный:
Нет (DHT включён)
Размер:
449.94 Мб (471,796,551 байт) » файлов: 22
Участники:
0 раздают, 0 качают (0 участников всего)
Внешние участники:
5 раздают, 1 качают (6 участников всего) [ Обновить ]
No seeders - write a personal message to user M0p94ok. Нет сидеров - пишите личное сообщение пользователю M0p94ok.
04:27
92
Нет комментариев. Ваш будет первым!