Поиск

(Fusion, Jazz-Funk) [CD] Herbie Hancock - Sunlight - 1978 (2010 Japan Edition), FLAC (image+.cue), lossless

(Fusion, Jazz-Funk) [CD] Herbie Hancock - Sunlight - 1978 (2010 Japan Edition), FLAC (image+.cue), lossless
Треклист:
Herbie Hancock - Sunlight
Жанр: Fusion, Jazz-Funk
Носитель: CD
Страна-производитель диска (релиза): Япония
Год издания: 2010
Издатель (лейбл): Sony Music
Номер по каталогу: SICP-20206
Страна исполнителя (группы): США
Аудиокодек: FLAC (*.flac)
Тип рипа: image+.cue
Битрейт аудио: lossless
Продолжительность: 39:33
Источник (релизер): kvapar (Спасибо Егору из PTZ)
Наличие сканов в содержимом раздачи: да
Треклист:
01. I Thought It Was You (Ragin-Hancock-Cohen) - 8:59
02. Come Running to Me (Hancock-Willis) - 8:29
03. Sunlight (Hancock) - 7:12
04. No Means Yes (Hancock) - 6:21
05. Good Question (Hancock) - 8:33
Состав:
Herbie Hancock - piano, keyboards, vocoder
Bennie Maupin - soprano saxophone (#3)
Wah Wah Watson (#1), Ray Parker, Jr. (#1,3) - guitar
Byron Miller (#1), Paul Jackson (#2,3,4), Jaco Pastorius (#5) - electric bass
Leon "Ndugu" Chancler (#1), James Levi (#2,3), Harvey Mason (#4), Tony Williams (#5) - drums
Bill Summers - percussion (#2-5)
Raul Rekow - congas (#1-4)
Baba Duru - tablas (#2)
Patrick Gleeson - additional synthesizers
Garnett Brown, Bobby Shew, Robert O.Bryant, Sr., Maurice Spears - brass
Fred Jackson, Jr., Ernest J.Watts, Jack Nimitz, David Willard Riddles - woodwinds
Terry Adams, Nathan Rubin, Lawrence Granger, Roy Malan, Linda Wood, Emily Van Valkenburgh - strings
Recorded at The Automatt, San Francisco, CA through August 1977 to May 1978.
Brass recorded at The Village Recorder, Los Angeles, CA.
Additional synthesizers recorded at Different Fur Trading Co., San Francisco, CA.
 
Лог создания рипа
Exact Audio Copy V1.0 beta 3 from 29. August 2011
Отчёт EAC об извлечении, выполненном 29. января 2015, 11:55
Herbie Hancock / Sunlight
Дисковод: Optiarc DVD RW AD-7203S Adapter: 0 ID: 4
Режим чтения : Достоверность
Использование точного потока : Да
Отключение кэша аудио : Да
Использование указателей C2 : Нет
Коррекция смещения при чтении : 48
Способность читать области Lead-in и Lead-out : Нет
Заполнение пропущенных сэмплов тишиной : Да
Удаление блоков с тишиной в начале и конце : Нет
При вычислениях CRC использовались нулевые сэмплы : Да
Интерфейс : Встроенный Win32-интерфейс для Win NT/2000
Выходной формат : Пользовательский кодировщик
Выбранный битрейт : 128 kBit/s
Качество : Высокий
Добавление ID3-тега : Нет
Утилита сжатия : C:\Program Files (x86)\Exact Audio Copy\Flac\flac.exe
Дополнительные параметры : -V -8 -T "Date=%year%" -T "Genre=%genre%" %source%
TOC извлечённого CD
Трек | Старт | Длительность | Начальный сектор | Конечный сектор
---------------------------------------------------------------------
1 | 0:00.00 | 8:59.00 | 0 | 40424
2 | 8:59.00 | 8:28.62 | 40425 | 78586
3 | 17:27.62 | 7:11.60 | 78587 | 110971
4 | 24:39.47 | 6:20.53 | 110972 | 139524
5 | 31:00.25 | 8:32.43 | 139525 | 177967
Характеристики диапазона извлечения и сообщения об ошибках
Выбранный диапазон
Имя файла C:\Users\Администратор\Music\Herbie Hancock - Sunlight (1978)\Herbie Hancock - Sunlight (1978).wav
Пиковый уровень 100.0 %
Скорость извлечения 3.6 X
Качество диапазона 100.0 %
CRC теста ABFA95DB
CRC копии ABFA95DB
Копирование... OK
Ошибок не произошло
AccurateRip: сводка
Трек 1 : извлечено точно (доверие 2) [AC836E01] (AR v2)
Трек 2 : извлечено точно (доверие 2) [BF1AFCA0] (AR v2)
Трек 3 : извлечено точно (доверие 2) [0DA136C6] (AR v2)
Трек 4 : извлечено точно (доверие 2) [08582F5B] (AR v2)
Трек 5 : извлечено точно (доверие 2) [56653903] (AR v2)
Все треки извлечены точно
Конец отчёта
==== Контрольная сумма отчёта A4563A95C6533C499979C23029C5D4F099FCBFFE128AA616DD0B5A9C3E3EB4CC ====
 
Содержание индексной карты (.CUE)
REM GENRE Jazz
REM DATE 1978
REM DISCID 39094405
REM COMMENT "ExactAudioCopy v1.0b3"
PERFORMER "Herbie Hancock"
TITLE "Sunlight"
FILE "Herbie Hancock - Sunlight.wav" WAVE
TRACK 01 AUDIO
TITLE "I Thought It Was You"
PERFORMER "Herbie Hancock"
INDEX 01 00:00:00
TRACK 02 AUDIO
TITLE "Come Running to Me"
PERFORMER "Herbie Hancock"
INDEX 00 08:56:08
INDEX 01 08:59:00
TRACK 03 AUDIO
TITLE "Sunlight"
PERFORMER "Herbie Hancock"
INDEX 00 17:23:28
INDEX 01 17:27:62
TRACK 04 AUDIO
TITLE "No Means Yes"
PERFORMER "Herbie Hancock"
INDEX 00 24:37:70
INDEX 01 24:39:47
TRACK 05 AUDIO
TITLE "Good Question"
PERFORMER "Herbie Hancock"
INDEX 00 30:58:10
INDEX 01 31:00:25
 
Отчет CUETools
[CUETools log; Date: 01.02.2015 21:28:58; Version: 2.1.5]
[CTDB TOCID: oARGrdZWHOzD2tFslUP9hrHMwyo-] found.
Track | CTDB Status
1 | (1/1) Accurately ripped
2 | (1/1) Accurately ripped
3 | (1/1) Accurately ripped
4 | (1/1) Accurately ripped
5 | (1/1) Accurately ripped
[AccurateRip ID: 00085a95-00268aed-39094405] found.
Track [ CRC | V2 ] Status
01 [bb0735f3|ac836e01] (4+2/6) Accurately ripped
02 [7e32f81a|bf1afca0] (4+2/6) Accurately ripped
03 [dd957310|0da136c6] (4+2/6) Accurately ripped
04 [61f10802|08582f5b] (4+2/6) Accurately ripped
05 [72acabc1|56653903] (4+2/6) Accurately ripped
Track Peak [ CRC32 ] [W/O NULL] [ LOG ]
-- 100,0 [ABFA95DB] [C4A2D235] CRC32
01 100,0 [576AAEDF] [0E8A8537]
02 100,0 [8F90D531] [751E64F7]
03 100,0 [25896BE3] [63607FB5]
04 100,0 [03D0BC9B] [C297F6DA]
05 100,0 [980E7F41] [BF3290B7]
 
Review by Richard S. Ginell
After Man-Child, alas, Herbie Hancock's American jazz-funk records in the 1970s grew gradually more commercial, less stimulating, and crucially, less truly funky with each release, even as his equipment rack grew larger. Just take a look at the staggering collection of keyboards on the back cover of the Sunlight LP -- all sought-after collectors' items now -- yet Hancock makes so little use of their possibilities here. For much of the album, he seems most interested in establishing a new career as an electronic vocalist. "I Thought It Was You," "Come Running to Me," and the title track introduce the ghostly, gauzy sound of Herbie's singing voice as heard through a vocoder; there's even an electronic Herbie scat choir. Stevie Wonder, he's not. There are still occasional splashes of Hancock harmonic color on the keyboards, but he also relies upon superfluous, self-arranged brass riffs and string backgrounds. The backup bands shift from track to track, from combinations of Headhunters alumni that offer soft-focused facsimiles of the old funk drive to a surprisingly strait-jacketed pairing of Tony Williams and Jaco Pastorius on the eccentric "Good Question."
Приватный:
Нет (DHT включён)
Размер:
256.60 Мб (269,061,141 байт) » файлов: 11
Участники:
0 раздают, 1 качают (1 участников всего)
Внешние участники:
3 раздают, 1 качают (4 участников всего) [ Обновить ]
Скорость:
532.97 Кб/c 0/c
Есть вопросы - пишите личное сообщение пользователю M0p94ok.
04:07
77
Нет комментариев. Ваш будет первым!