Поиск

(Funk, Soul) [CD] Ernie Watts - Chariots of Fire - 1981 (2014 Japan Edition), FLAC (image+.cue), lossless

(Funk, Soul) [CD] Ernie Watts - Chariots of Fire - 1981 (2014 Japan Edition), FLAC (image+.cue), lossless
Треклист:
Ernie Watts - Chariots of Fire
Жанр: Funk, Soul
Носитель: CD
Страна-производитель диска (релиза): Япония
Год издания: 2014
Издатель (лейбл): Qwest/WEA/Warner
Номер по каталогу: WPCR-28018
Страна исполнителя (группы): США
Аудиокодек: FLAC (*.flac)
Тип рипа: image+.cue
Битрейт аудио: lossless
Продолжительность: 36:06
Источник (релизер): kvapar (Спасибо Егору из PTZ)
Наличие сканов в содержимом раздачи: да
Треклист:
01. Chariots of Fire (Theme) (Dance Version) (Vangelis) - 5:56
02. Hold On (Ingram-Jones) - 4:26
03. Lady (Richie) - 3:50
04. Gigolo (Jones-Ross) - 4:40
05. Valdez in the Country (Hathaway) - 5:15
06. Abraham's Theme (Vangelis) - 3:46
07. Five Circles (Vangelis) - 3:41
08. Chariots of Fire (Theme) (Slow Version) (Vangelis) - 4:30
Состав:
Ernie Watts - tenor saxophone
Michael Omartian - acoustic piano
Richard Tee - electric piano
Carlos Rios - guitar
Neil Stubbenhaus - bass
John Robinson - drums
Paulinho Da Costa - percussion
Ian Underwood - synthesizer
Recorded at Westlake Studio, Los Angeles, CA on October 19-31, 1981.
 
Лог создания рипа
Exact Audio Copy V1.0 beta 3 from 29. August 2011
Отчёт EAC об извлечении, выполненном 29. января 2015, 11:23
Ernie Watts / Chariots Of Fire
Дисковод: Optiarc DVD RW AD-7203S Adapter: 0 ID: 4
Режим чтения : Достоверность
Использование точного потока : Да
Отключение кэша аудио : Да
Использование указателей C2 : Нет
Коррекция смещения при чтении : 48
Способность читать области Lead-in и Lead-out : Нет
Заполнение пропущенных сэмплов тишиной : Да
Удаление блоков с тишиной в начале и конце : Нет
При вычислениях CRC использовались нулевые сэмплы : Да
Интерфейс : Встроенный Win32-интерфейс для Win NT/2000
Выходной формат : Пользовательский кодировщик
Выбранный битрейт : 128 kBit/s
Качество : Высокий
Добавление ID3-тега : Нет
Утилита сжатия : C:\Program Files (x86)\Exact Audio Copy\Flac\flac.exe
Дополнительные параметры : -V -8 -T "Date=%year%" -T "Genre=%genre%" %source%
TOC извлечённого CD
Трек | Старт | Длительность | Начальный сектор | Конечный сектор
---------------------------------------------------------------------
1 | 0:00.00 | 5:56.22 | 0 | 26721
2 | 5:56.22 | 4:26.26 | 26722 | 46697
3 | 10:22.48 | 3:50.08 | 46698 | 63955
4 | 14:12.56 | 4:40.08 | 63956 | 84963
5 | 18:52.64 | 5:14.59 | 84964 | 108572
6 | 24:07.48 | 3:46.30 | 108573 | 125552
7 | 27:54.03 | 3:41.21 | 125553 | 142148
8 | 31:35.24 | 4:30.34 | 142149 | 162432
Характеристики диапазона извлечения и сообщения об ошибках
Выбранный диапазон
Имя файла C:\Users\Администратор\Music\Ernie Watts - Chariots Of Fire (1982)\Ernie Watts - Chariots Of Fire (1982).wav
Пиковый уровень 100.0 %
Скорость извлечения 3.5 X
Качество диапазона 100.0 %
CRC теста 660AC8B2
CRC копии 660AC8B2
Копирование... OK
Ошибок не произошло
AccurateRip: сводка
Трек 1 отсутствует в базе данных
Трек 2 отсутствует в базе данных
Трек 3 отсутствует в базе данных
Трек 4 отсутствует в базе данных
Трек 5 отсутствует в базе данных
Трек 6 отсутствует в базе данных
Трек 7 отсутствует в базе данных
Трек 8 отсутствует в базе данных
Ни одного трека нет в базе AccurateRip
Конец отчёта
==== Контрольная сумма отчёта E0666F48EED274FB38D99429DE5F63CBB31DEF569DEF03CB279A855E9D78F2D6 ====
 
Содержание индексной карты (.CUE)
REM GENRE Jazz
REM DATE 1981
REM DISCID 77087508
REM COMMENT "ExactAudioCopy v1.0b3"
PERFORMER "Ernie Watts"
TITLE "Chariots of Fire"
FILE "Ernie Watts - Chariots of Fire.wav" WAVE
TRACK 01 AUDIO
TITLE "Chariots of Fire (Theme) (Dance Version)"
PERFORMER "Ernie Watts"
INDEX 01 00:00:00
TRACK 02 AUDIO
TITLE "Hold On"
PERFORMER "Ernie Watts"
INDEX 00 05:55:67
INDEX 01 05:56:22
TRACK 03 AUDIO
TITLE "Lady"
PERFORMER "Ernie Watts"
INDEX 00 10:21:46
INDEX 01 10:22:48
TRACK 04 AUDIO
TITLE "Gigolo"
PERFORMER "Ernie Watts"
INDEX 01 14:12:56
TRACK 05 AUDIO
TITLE "Valdez in the Country"
PERFORMER "Ernie Watts"
INDEX 00 18:49:49
INDEX 01 18:52:64
TRACK 06 AUDIO
TITLE "Abraham's Theme"
PERFORMER "Ernie Watts"
INDEX 00 24:07:44
INDEX 01 24:07:48
TRACK 07 AUDIO
TITLE "Five Circles"
PERFORMER "Ernie Watts"
INDEX 01 27:54:03
TRACK 08 AUDIO
TITLE "Chariots of Fire (Theme) (Slow Version)"
PERFORMER "Ernie Watts"
INDEX 01 31:35:24
 
Отчет CUETools
[CUETools log; Date: 01.02.2015 21:28:24; Version: 2.1.5]
[CTDB TOCID: E.Ja1KG.Bhc5ZqIFKORAnXWQ.2E-] disk not present in database.
[AccurateRip ID: 000b9cd8-004c593d-77087508] disk not present in database.
Track Peak [ CRC32 ] [W/O NULL] [ LOG ]
-- 100,0 [660AC8B2] [7331A664] CRC32
01 99,9 [0DFB4A90] [4A0B9DA7]
02 100,0 [DFE6A049] [CEAB1430]
03 99,9 [A76581B4] [E55FE0AA]
04 100,0 [E756F162] [B3A9881C]
05 99,9 [69995208] [B083AD18]
06 99,9 [150CC279] [0A41F641]
07 99,9 [9A8AF77F] [42111979]
08 99,9 [7ACE6245] [7069C404]
 
Review by Rob Theakston
Inexplicably, Ernie Watts thought it a good idea to record an album dedicated to the movie Chariots of Fire, while having very little to do with the overall plot of the film. The opening number is indeed the theme to Chariots of Fire, but sped up to be danceable. The result is what disco connoisseur Morgan Geist might deem to be an "unclassic" -- really bad but in a very laughable way (it also could double as the fine theme to an afternoon syndicated talk show). James Ingram also makes an appearance on the smooth rocker "Hold On," and there's a ridiculous cover of the Lionel Richie/Kenny Rogers hit "Lady" and one of Donny Hathaway's "Valdez in the Country," which would be appropriate music bedding for your local cable weather forecast. The album is finally put out of its misery with a "slower" and more reggae-based interpretation of "Chariots of Fire" that is just as amusing as the album's opener, if not more so. Proceed with caution.
Приватный:
Нет (DHT включён)
Размер:
259.82 Мб (272,441,088 байт) » файлов: 12
Участники:
0 раздают, 0 качают (0 участников всего)
Внешние участники:
--- [ Обновить ]
No seeders - write a personal message to user M0p94ok. Нет сидеров - пишите личное сообщение пользователю M0p94ok.
04:06
69
Нет комментариев. Ваш будет первым!