Поиск

(Fusion, Jazz-Funk) [CD] Arista All Stars (w/ Warren Bernhardt, Michael Brecker, Randy Brecker, Larry Coryell) - Blue Montreux - 1978 (2014 Japan Edition), FLAC (image+.cue), lossless

(Fusion, Jazz-Funk) [CD] Arista All Stars (w/ Warren Bernhardt, Michael Brecker, Randy Brecker, Larry Coryell) - Blue Montreux - 1978 (2014 Japan Edition), FLAC (image+.cue), lossless
Треклист:
Arista All Stars - Blue Montreux
Жанр: Fusion, Jazz-Funk
Носитель: CD
Страна-производитель диска (релиза): Япония
Год издания: 2014
Издатель (лейбл): Arista/Sony Music Labels
Номер по каталогу: SICP-4266
Страна исполнителя (группы): США
Аудиокодек: FLAC (*.flac)
Тип рипа: image+.cue
Битрейт аудио: lossless
Продолжительность: 52:30
Источник (релизер): kvapar (Спасибо Егору из PTZ)
Наличие сканов в содержимом раздачи: да
Треклист:
01. Blue Montreux (Mainieri) - 8:50
02. Rocks (R.Brecker) - 7:57
03. I'm Sorry (Mainieri) - 8:42
04. Magic Carpet (Mainieri) - 5:37
05. Buds (R.Brecker) - 5:02
06. Floating (Bernhardt) - 7:57
07. The Virgin and the Gypsy (Mainieri) - 8:25
Состав:
Warren Bernhardt - piano, keyboards
Michael Brecker - tenor saxophone
Randy Brecker - trumpet
Larry Coryell, Steve Khan - electric guitar
Steve Jordan - drums
Tony Levin - electric bass
Mike Mainieri - vibes, percussion
Recorded at Montreux Jazz Festival, Switzerland on July 21-22, 1978.
 
Лог создания рипа
Exact Audio Copy V1.0 beta 3 from 29. August 2011
Отчёт EAC об извлечении, выполненном 29. января 2015, 13:31
Arista All Stars / Blue Montreux
Дисковод: Optiarc DVD RW AD-7203S Adapter: 0 ID: 4
Режим чтения : Достоверность
Использование точного потока : Да
Отключение кэша аудио : Да
Использование указателей C2 : Нет
Коррекция смещения при чтении : 48
Способность читать области Lead-in и Lead-out : Нет
Заполнение пропущенных сэмплов тишиной : Да
Удаление блоков с тишиной в начале и конце : Нет
При вычислениях CRC использовались нулевые сэмплы : Да
Интерфейс : Встроенный Win32-интерфейс для Win NT/2000
Выходной формат : Пользовательский кодировщик
Выбранный битрейт : 128 kBit/s
Качество : Высокий
Добавление ID3-тега : Нет
Утилита сжатия : C:\Program Files (x86)\Exact Audio Copy\Flac\flac.exe
Дополнительные параметры : -V -8 -T "Date=%year%" -T "Genre=%genre%" %source%
TOC извлечённого CD
Трек | Старт | Длительность | Начальный сектор | Конечный сектор
---------------------------------------------------------------------
1 | 0:00.00 | 8:50.22 | 0 | 39771
2 | 8:50.22 | 7:57.15 | 39772 | 75561
3 | 16:47.37 | 8:41.38 | 75562 | 114674
4 | 25:29.00 | 5:37.10 | 114675 | 139959
5 | 31:06.10 | 5:02.00 | 139960 | 162609
6 | 36:08.10 | 7:56.60 | 162610 | 198369
7 | 44:04.70 | 8:24.70 | 198370 | 236239
Характеристики диапазона извлечения и сообщения об ошибках
Выбранный диапазон
Имя файла C:\Users\Администратор\Music\Arista All Stars - Blue Montreux (1978)\Arista All Stars - Blue Montreux (1978).wav
Пиковый уровень 100.0 %
Скорость извлечения 3.9 X
Качество диапазона 100.0 %
CRC теста FDCF0487
CRC копии FDCF0487
Копирование... OK
Ошибок не произошло
AccurateRip: сводка
Трек 1 точность не определена (достоверность 1) [32D5A91B], AccurateRip вернул [1E23E1BA] (AR v2)
Трек 2 точность не определена (достоверность 1) [B8B26CF4], AccurateRip вернул [D6B44DF5] (AR v2)
Трек 3 точность не определена (достоверность 1) [1DCE6BA4], AccurateRip вернул [C1D25A53] (AR v2)
Трек 4 точность не определена (достоверность 1) [BFB475E9], AccurateRip вернул [D36D8509] (AR v2)
Трек 5 точность не определена (достоверность 1) [74DF5EB2], AccurateRip вернул [F585D179] (AR v2)
Трек 6 точность не определена (достоверность 1) [CF801279], AccurateRip вернул [49C5836F] (AR v2)
Трек 7 точность не определена (достоверность 1) [E994C75C], AccurateRip вернул [FA2525E9] (AR v2)
Ни один трек не прошёл проверки на точность
В вашей базе может быть иной вариант штамповки диска
Конец отчёта
==== Контрольная сумма отчёта CE2E25E3E7755AE3A56743097F4306F87918B3AF57D50DB5764F801841F6C1C8 ====
 
Содержание индексной карты (.CUE)
REM GENRE Jazz
REM DATE 1978
REM DISCID 530C4D07
REM COMMENT "ExactAudioCopy v1.0b3"
PERFORMER "Arista All Stars"
TITLE "Blue Montreux"
FILE "Arista All Stars - Blue Montreux.wav" WAVE
TRACK 01 AUDIO
TITLE "Blue Montreux"
PERFORMER "Arista All Stars"
INDEX 01 00:00:00
TRACK 02 AUDIO
TITLE "Rocks"
PERFORMER "Arista All Stars"
INDEX 00 08:47:55
INDEX 01 08:50:22
TRACK 03 AUDIO
TITLE "I'm Sorry"
PERFORMER "Arista All Stars"
INDEX 00 16:44:72
INDEX 01 16:47:37
TRACK 04 AUDIO
TITLE "Magic Carpet"
PERFORMER "Arista All Stars"
INDEX 00 25:25:50
INDEX 01 25:29:00
TRACK 05 AUDIO
TITLE "Buds"
PERFORMER "Arista All Stars"
INDEX 00 31:03:45
INDEX 01 31:06:10
TRACK 06 AUDIO
TITLE "Floating"
PERFORMER "Arista All Stars"
INDEX 00 36:05:10
INDEX 01 36:08:10
TRACK 07 AUDIO
TITLE "The Virgin and the Gypsy"
PERFORMER "Arista All Stars"
INDEX 00 44:02:25
INDEX 01 44:04:70
 
Отчет CUETools
[CUETools log; Date: 01.02.2015 21:27:35; Version: 2.1.5]
[CTDB TOCID: 79JrZrPoJ33dfzt7DY8kxfJFsos-] found.
Track | CTDB Status
1 | (2/2) Accurately ripped
2 | (2/2) Accurately ripped
3 | (2/2) Accurately ripped
4 | (2/2) Accurately ripped
5 | (2/2) Accurately ripped
6 | (2/2) Accurately ripped
7 | (2/2) Accurately ripped
[AccurateRip ID: 000ec215-00574375-530c4d07] found.
Track [ CRC | V2 ] Status
01 [c5ff2cf4|32d5a91b] (0+0/3) No match
02 [459393c6|b8b26cf4] (0+0/3) No match
03 [a63e5809|1dce6ba4] (0+0/3) No match
04 [3891bcfd|bfb475e9] (0+0/3) No match
05 [0f320ef7|74df5eb2] (0+0/3) No match
06 [b2399e94|cf801279] (0+0/3) No match
07 [a933c5cf|e994c75c] (0+0/3) No match
Offsetted by -552:
01 [26650661] (1/3) Accurately ripped
02 [4267b167] (1/3) Accurately ripped
03 [71301877] (1/3) Accurately ripped
04 [3c1858e5] (1/3) Accurately ripped
05 [280d1d7d] (1/3) Accurately ripped
06 [7a8477c1] (1/3) Accurately ripped
07 [6920de5e] (1/3) Accurately ripped
Offsetted by -413:
01 [1e23e1ba] (1/3) Accurately ripped
02 [d6b44df5] (1/3) Accurately ripped
03 [c1d25a53] (1/3) Accurately ripped
04 [d36d8509] (1/3) Accurately ripped
05 [f585d179] (1/3) Accurately ripped
06 [49c5836f] (1/3) Accurately ripped
07 [fa2525e9] (1/3) Accurately ripped
Track Peak [ CRC32 ] [W/O NULL] [ LOG ]
-- 100,0 [FDCF0487] [CDD7EE8E] CRC32
01 98,8 [5ED10665] [A862A434]
02 98,8 [248D4C6A] [56DD0E11]
03 98,8 [140F47CA] [D36E3772]
04 100,0 [05A4373C] [0E6F1016]
05 99,9 [5F3F03D9] [1FE751B8]
06 99,9 [8F572BD5] [E80F1C56]
07 98,8 [C16B51C3] [B96DF0E7]
 
Review by Scott Yanow
At the 1978 Montreux Jazz Festival, a variety of artists (including keyboardist Warren Bernhardt, tenor-saxophonist Michael Brecker, guitarists Steve Khan and Larry Coryell, trumpeter Randy Brecker and vibraphonist Mike Mainieri) recorded a dozen funky selections which were originally released on two Arista LPs. This single CD has the eight top performances from these important fusion stylists; Michael Brecker in particular is in good form. The results are not essential but offer listeners a time capsule of where R&B-oriented fusion was in 1978.
Приватный:
Нет (DHT включён)
Размер:
362.41 Мб (380,012,469 байт) » файлов: 11
Участники:
0 раздают, 0 качают (0 участников всего)
Внешние участники:
9 раздают, 3 качают (12 участников всего) [ Обновить ]
Есть вопросы - пишите личное сообщение пользователю M0p94ok.
04:05
47
Нет комментариев. Ваш будет первым!