Поиск

(Funk/Soul/Pop) [CD] Caroline Crawford - Nice And Soulful - 1979, FLAC (tracks+.cue), lossless

(Funk/Soul/Pop) [CD] Caroline Crawford - Nice And Soulful - 1979, FLAC (tracks+.cue), lossless
Треклист:
Caroline Crawford / Nice And Soulful (1979)
Жанр: Funk/Soul/Pop
Носитель: CD
Страна-производитель диска (релиза): USA
Год издания: 2003
Издатель (лейбл): Mercury
Номер по каталогу: 067 517-2
Страна исполнителя (группы): USA
Аудиокодек: FLAC (*.flac)
Тип рипа: tracks+.cue
Битрейт аудио: lossless
Продолжительность: 00:34:12
Источник (релизер): из интернета
Наличие сканов в содержимом раздачи: да
Треклист:
01 I'll Be Here For You
02 Can't Hold Me Back
03 Love Me Or Leave Me Alone
04 The Strut
05 The Facts Of Life
06 Havin' Fun
 
Лог создания рипа
EAC extraction logfile from 16. September 2007, 9:32 for CD
Caroline Crawford / Nice And Soulful
Used drive : PLEXTOR DVDR PX-716A Adapter: 1 ID: 0
Read mode : Secure with NO C2, accurate stream, disable cache
Read offset correction : 30
Overread into Lead-In and Lead-Out : No
Used output format : Internal WAV Routines
44.100 Hz; 16 Bit; Stereo
Other options :
Fill up missing offset samples with silence : Yes
Delete leading and trailing silent blocks : No
Installed external ASPI interface
Track 1
Filename F:\[MyRip]\01 - I'll Be Here For You.wav
Pre-gap length 0:00:02.33
Peak level 100.0 %
Track quality 100.0 %
Test CRC 2A2F11F4
Copy CRC 2A2F11F4
Copy OK
Track 2
Filename F:\[MyRip]\02 - Can't Hold Me Back.wav
Pre-gap length 0:00:00.02
Peak level 100.0 %
Track quality 100.0 %
Test CRC 7D7BCB9B
Copy CRC 7D7BCB9B
Copy OK
Track 3
Filename F:\[MyRip]\03 - Love Me Or Leave Me Alone.wav
Pre-gap length 0:00:00.02
Peak level 100.0 %
Track quality 100.0 %
Test CRC 370C6E53
Copy CRC 370C6E53
Copy OK
Track 4
Filename F:\[MyRip]\04 - The Strut.wav
Pre-gap length 0:00:00.02
Peak level 100.0 %
Track quality 100.0 %
Test CRC 38BF6748
Copy CRC 38BF6748
Copy OK
Track 5
Filename F:\[MyRip]\05 - The Facts Of Life.wav
Pre-gap length 0:00:00.02
Peak level 100.0 %
Track quality 100.0 %
Test CRC 49CD00D3
Copy CRC 49CD00D3
Copy OK
Track 6
Filename F:\[MyRip]\06 - Havin'fun.wav
Pre-gap length 0:00:00.02
Peak level 100.0 %
Track quality 99.8 %
Test CRC CD90357A
Copy CRC CD90357A
Copy OK
No errors occured
End of status report
 
Содержание индексной карты (.CUE)
REM GENRE Funk
REM DATE 2003
REM DISCID 47080406
REM COMMENT "ExactAudioCopy v0.95b3"
PERFORMER "Caroline Crawford"
TITLE "Nice And Soulful"
FILE "01 - I'll Be Here For You.flac" WAVE
TRACK 01 AUDIO
TITLE "I'll Be Here For You"
PERFORMER "Caroline Crawford"
PREGAP 00:00:33
INDEX 01 00:00:00
TRACK 02 AUDIO
TITLE "Can't Hold Me Back"
PERFORMER "Caroline Crawford"
INDEX 00 05:47:38
FILE "02 - Can't Hold Me Back.flac" WAVE
INDEX 01 00:00:00
TRACK 03 AUDIO
TITLE "Love Me Or Leave Me Alone"
PERFORMER "Caroline Crawford"
INDEX 00 05:52:37
FILE "03 - Love Me Or Leave Me Alone.flac" WAVE
INDEX 01 00:00:00
TRACK 04 AUDIO
TITLE "The Strut"
PERFORMER "Caroline Crawford"
INDEX 00 05:36:59
FILE "04 - The Strut.flac" WAVE
INDEX 01 00:00:00
TRACK 05 AUDIO
TITLE "The Facts Of Life"
PERFORMER "Caroline Crawford"
INDEX 00 04:03:61
FILE "05 - The Facts Of Life.flac" WAVE
INDEX 01 00:00:00
TRACK 06 AUDIO
TITLE "Havin'fun"
PERFORMER "Caroline Crawford"
INDEX 00 06:48:14
FILE "06 - Havin'fun.flac" WAVE
INDEX 01 00:00:00
Приватный:
Нет (DHT включён)
Размер:
251.57 Мб (263,793,889 байт) » файлов: 19
Участники:
0 раздают, 0 качают (0 участников всего)
Внешние участники:
2 раздают, 1 качают (3 участников всего) [ Обновить ]
Есть вопросы - пишите личное сообщение пользователю M0p94ok.
04:05
75
Нет комментариев. Ваш будет первым!