Поиск

(Fusion, Dub, Jewish, Tzadik) David Gould - Feast Of The Passover - 2009, APE (image+.cue) lossless

Треклист:
David Gould / Feast Of The Passover
Жанр: Fusion, Dub, Jewish, Tzadik
Страна-производитель диска: USA
Год издания диска: 2009
Издатель (лейбл): Tzadik (Radical Jewish Culture)
Номер по каталогу: TZ8149
Страна: USA
Аудио кодек: APE (*.ape)
Тип рипа: image+.cue
Битрейт аудио: lossless
Продолжительность: 47 min
Источник (релизер): собственный рип
Наличие сканов в содержимом раздачи: да
Треклист:
Feast Of The Passover
1. Divine Order
2. Bread of Affliction
3. Four Questions
4. Ten Plagues
5. Halleluja
6. Jah is Mighty
7. Who Knows One?
8. Goat's Milk
9. May the Prophet Arise
10. Once We Were Slaves
11. Peace
12. Next Year in Jerusalem
 
EAC log
Exact Audio Copy V0.99 prebeta 5 from 4. May 2009
EAC extraction logfile from 14. March 2011, 11:55
David Gould / Feast of the Passover
Used drive : HL-DT-STDVD-RAM GH22NP20 Adapter: 0 ID: 0
Read mode : Secure
Utilize accurate stream : Yes
Defeat audio cache : Yes
Make use of C2 pointers : No
Read offset correction : 102
Overread into Lead-In and Lead-Out : No
Fill up missing offset samples with silence : Yes
Delete leading and trailing silent blocks : No
Null samples used in CRC calculations : Yes
Used interface : Native Win32 interface for Win NT & 2000
Used output format : Internal WAV Routines
Sample format : 44.100 Hz; 16 Bit; Stereo
TOC of the extracted CD
Track | Start | Length | Start sector | End sector
---------------------------------------------------------
1 | 0:00.00 | 5:57.55 | 0 | 26829
2 | 5:57.55 | 3:22.15 | 26830 | 41994
3 | 9:19.70 | 3:25.11 | 41995 | 57380
4 | 12:45.06 | 4:55.42 | 57381 | 79547
5 | 17:40.48 | 3:18.21 | 79548 | 94418
6 | 20:58.69 | 3:37.58 | 94419 | 110751
7 | 24:36.52 | 4:06.24 | 110752 | 129225
8 | 28:43.01 | 3:11.23 | 129226 | 143573
9 | 31:54.24 | 4:22.06 | 143574 | 163229
10 | 36:16.30 | 2:34.42 | 163230 | 174821
11 | 38:50.72 | 3:42.55 | 174822 | 191526
12 | 42:33.52 | 4:23.21 | 191527 | 211272
Range status and errors
Selected range
Filename C:\David Gould (2009) Feast of the Passover\David Gould - Feast of the Passover.wav
Peak level 96.6 %
Range quality 100.0 %
Test CRC 012860E1
Copy CRC 012860E1
Copy OK
No errors occurred
AccurateRip summary
Track 1 accurately ripped (confidence 1) [08541893]
Track 2 accurately ripped (confidence 1) [C819AA2A]
Track 3 accurately ripped (confidence 1) [8A5F6BCC]
Track 4 accurately ripped (confidence 1) [42E25667]
Track 5 accurately ripped (confidence 1) [3EFA0638]
Track 6 accurately ripped (confidence 1) [E4A06A14]
Track 7 accurately ripped (confidence 1) [0A6B15AD]
Track 8 accurately ripped (confidence 1) [7018486C]
Track 9 accurately ripped (confidence 1) [E20CDC9D]
Track 10 accurately ripped (confidence 1) [CC047592]
Track 11 accurately ripped (confidence 1) [E478B19A]
Track 12 accurately ripped (confidence 1) [037A81C6]
All tracks accurately ripped
End of status report
 
.CUE
REM GENRE "Radical Jewish Culture"
REM DATE 2009
REM DISCID A60B000C
REM COMMENT "ExactAudioCopy v0.99pb5"
PERFORMER "David Gould"
TITLE "Feast of the Passover"
FILE "David Gould - Feast of the Passover.wav" WAVE
TRACK 01 AUDIO
TITLE "Divine Order"
PERFORMER "David Gould"
INDEX 01 00:00:00
TRACK 02 AUDIO
TITLE "Bread of Affliction"
PERFORMER "David Gould"
INDEX 01 05:57:55
TRACK 03 AUDIO
TITLE "Four Questions"
PERFORMER "David Gould"
INDEX 01 09:19:70
TRACK 04 AUDIO
TITLE "Ten Plagues"
PERFORMER "David Gould"
INDEX 01 12:45:06
TRACK 05 AUDIO
TITLE "Hallelujah"
PERFORMER "David Gould"
INDEX 01 17:40:48
TRACK 06 AUDIO
TITLE "Jah is Might"
PERFORMER "David Gould"
INDEX 01 20:58:69
TRACK 07 AUDIO
TITLE "Who Knows One"
PERFORMER "David Gould"
INDEX 01 24:36:52
TRACK 08 AUDIO
TITLE "Goat's Milk"
PERFORMER "David Gould"
INDEX 01 28:43:01
TRACK 09 AUDIO
TITLE "May the Prophet Arise"
PERFORMER "David Gould"
INDEX 01 31:54:24
TRACK 10 AUDIO
TITLE "Once We Were Slaves"
PERFORMER "David Gould"
INDEX 01 36:16:30
TRACK 11 AUDIO
TITLE "Peace"
PERFORMER "David Gould"
INDEX 01 38:50:72
TRACK 12 AUDIO
TITLE "Next Year in Jerusalem"
PERFORMER "David Gould"
INDEX 01 42:33:52
Доп. информация: Рип сделан с оригинального CD... Картинки прилагаются...
Comming soon:
- Fogel and the Sheriffs - "Exorcism"
- Gabriele Coen "Jewish Experience" - "Awakening"
- Greg Wall's Later Prophets - "Ha'Orot"
- Uri Gurvich - "The Storyteller"
- Robinson/Greene - "Two Voices In The Desert"
- Omer Klein - "Rockets On The Balcony"
enjoy!
 
from Tzadik label
The Reggae master from Adonai in Dub returns to Tzadik with another fascinating program of Jewish music—Reggae style. Feast of the Passover is a collection of songs commonly sung during the Passover seder. Beautifully recorded in Boston, Ithaca, and Jamaica it features a fabulous band of David’s longtime associates as well as the critically acclaimed Romanian saxophonist Yuri Yunakov and the legendary Leonard "Sparrow" Dillon (of the Ethiopians) and the Silvertones on vocals. Incredibly varied and spiritually inspired music connecting the Rasta and Jewish traditions through the miracle of music, this is the perfect background to anyone's 21st century seder.
 
band
Tommy Benedetti - drums
Craig Akira Fujita - vocals
Brian Thomas - trombone
Keith "Sleepy" Coley of The Silvertones - vocals
Steve Digrigorio - synths
Leonard "Sparrow" Dillon of the Ethiopians - vocals
Adam Gold - vocals
David Solid Gould - electric bass, upright bass, auxiliary percussion, vocals, nyabinghi
Lisa Gould - vocals
Gilmore "Smoker" Grant of The Silvertones - vocals
Mike Keenan - rhythm guitar
William McKenna - sticky guitar, first guitar lead
JP Nawn - nyabinghi
Jonathan Petronzio - organ, clavinet
Basil Punsalan - nyabinghi
Nathan Silas Richardson - piano, guitar leads
Robert Salvato - jaw harp
Elisa Sciscioli - vocals
Jared Sims - baritone sax solo, tenor sax
Mark Wienand - baritone and tenor sax, flute
Yuri Yunakov - tenor sax solos
Ryan Zawel - trombone
Мои раздачи
20:52
292
Нет комментариев. Ваш будет первым!