Поиск

(Latin Jazz) Ray Barretto — La Cuna (1979) — 2003, FLAC (tracks+.cue) lossless

(Latin Jazz) Ray Barretto — La Cuna (1979) — 2003, FLAC (tracks+.cue) lossless
Треклист:
Ray Barretto — La Cuna (1979)
Жанр: Latin Jazz
Год издания диска: 2003
Лейбл: CTI Records
Номер по каталогу: 5129362
Аудио кодек: FLAC (*.flac)
Тип рипа: tracks+.cue
Битрейт аудио: lossless
Продолжительность: 40:00
Релизер: Bezz
Сканы есть
Треклист:
01. La Cuna (5:29)
02. Doloroso (5:55)
03. Mambotango (6:11)
04. The Old Castle (8:37)
05. Pastime Paradise (8:38)
06. Cocinando (5:10)
 
 
Лог создания рипа
Exact Audio Copy V0.99 prebeta 5 from 4. May 2009
EAC extraction logfile from 9. March 2011, 18:57
Unknown Artist / Unknown Title
Used drive : Optiarc DVD RW AD-7930H Adapter: 0 ID: 1
Read mode : Secure
Utilize accurate stream : Yes
Defeat audio cache : Yes
Make use of C2 pointers : No
Read offset correction : 48
Overread into Lead-In and Lead-Out : No
Fill up missing offset samples with silence : Yes
Delete leading and trailing silent blocks : No
Null samples used in CRC calculations : No
Used interface : Installed external ASPI interface
Gap handling : Appended to previous track
Used output format : Internal WAV Routines
Sample format : 44.100 Hz; 16 Bit; Stereo
TOC of the extracted CD
Track | Start | Length | Start sector | End sector
---------------------------------------------------------
1 | 0:00.00 | 5:29.10 | 0 | 24684
2 | 5:29.10 | 5:55.00 | 24685 | 51309
3 | 11:24.10 | 6:10.70 | 51310 | 79129
4 | 17:35.05 | 8:37.05 | 79130 | 117909
5 | 26:12.10 | 8:38.00 | 117910 | 156759
6 | 34:50.10 | 5:09.65 | 156760 | 179999
Track 1
Filename C:\Users\Costantino\Music\carine02\Track01.wav
Pre-gap length 0:00:02.00
Peak level 91.7 %
Track quality 100.0 %
Test CRC 1823A011
Copy CRC 1823A011
Copy OK
Track 2
Filename C:\Users\Costantino\Music\carine02\Track02.wav
Pre-gap length 0:00:00.38
Peak level 63.2 %
Track quality 99.9 %
Test CRC BA2EE481
Copy CRC BA2EE481
Copy OK
Track 3
Filename C:\Users\Costantino\Music\carine02\Track03.wav
Pre-gap length 0:00:02.70
Peak level 85.1 %
Track quality 100.0 %
Test CRC 95AB89D3
Copy CRC 95AB89D3
Copy OK
Track 4
Filename C:\Users\Costantino\Music\carine02\Track04.wav
Pre-gap length 0:00:03.20
Peak level 89.1 %
Track quality 100.0 %
Test CRC 9BC934A4
Copy CRC 9BC934A4
Copy OK
Track 5
Filename C:\Users\Costantino\Music\carine02\Track05.wav
Pre-gap length 0:00:03.13
Peak level 97.5 %
Track quality 99.9 %
Test CRC 88EB9DF6
Copy CRC 88EB9DF6
Copy OK
Track 6
Filename C:\Users\Costantino\Music\carine02\Track06.wav
Pre-gap length 0:00:02.68
Peak level 79.4 %
Track quality 100.0 %
Test CRC 34CF8F9B
Copy CRC 34CF8F9B
Copy OK
No errors occurred
End of status report
 
Содержание индексной карты (.CUE)
REM DISCID 48096006
REM COMMENT "ExactAudioCopy v0.99pb5"
PERFORMER "Unknown Artist"
TITLE "Unknown Title"
FILE "01. La Cuna.flac" WAVE
TRACK 01 AUDIO
TITLE "La Cuna"
PERFORMER "Unknown Artist"
INDEX 01 00:00:00
TRACK 02 AUDIO
TITLE "Doloroso"
PERFORMER "Unknown Artist"
INDEX 00 05:28:47
FILE "02. Doloroso.flac" WAVE
INDEX 01 00:00:00
TRACK 03 AUDIO
TITLE "Mambotango"
PERFORMER "Unknown Artist"
INDEX 00 05:52:05
FILE "03. Mambotango.flac" WAVE
INDEX 01 00:00:00
TRACK 04 AUDIO
TITLE "The Old Castle"
PERFORMER "Unknown Artist"
INDEX 00 06:07:50
FILE "04. The Old Castle.flac" WAVE
INDEX 01 00:00:00
TRACK 05 AUDIO
TITLE "Pastime Paradise"
PERFORMER "Unknown Artist"
INDEX 00 08:33:67
FILE "05. Pastime Paradise.flac" WAVE
INDEX 01 00:00:00
TRACK 06 AUDIO
TITLE "Cocinando"
PERFORMER "Unknown Artist"
INDEX 00 08:35:07
FILE "06. Cocinando.flac" WAVE
INDEX 01 00:00:00
 
Состав
Ray Barretto (congas, percussion); Willie Torres (vocals); John Tropea (guitar); Joe Farrell (flute, soprano saxophone, alto saxophone, tenor saxophone); Charlie Palmieri (piano, percussion); Carlos Franzetti (piano); Jeremy Wall, Suzanne Ciani (synthesizer); Mark Craney, Steve Gadd (drums); Tito Puente (timbales)
19:53
382
Нет комментариев. Ваш будет первым!