Поиск

(Latin Jazz) Dave Samuels — Natural Selection — 1991, FLAC (image+.cue) lossless

(Latin Jazz) Dave Samuels — Natural Selection — 1991, FLAC (image+.cue) lossless
Треклист:
Dave Samuels — Natural Selection
Жанр: Latin Jazz
Год издания диска: 1991
Лейбл: GRP Records
Номер по каталогу: GRD-9656
Аудио кодек: FLAC (*.flac)
Тип рипа: image+.cue
Битрейт аудио: lossless
Продолжительность: 50:27
Риппер: MidnightShadow
Сканы есть
Треклист:
01. Spring High (5:17)
02. Cara Linda (4:27)
03. The Red Shoes (5:42)
04. Mossoro's Motion (4:44)
05. Between the Lines (5:36)
06. A White Rose (4:31)
07. Appomattox (5:33)
08. Unspoken Words (4:57)
09. Natural Selection (5:17)
10. Knots (4:25)
 
 
Лог создания рипа
EAC extraction logfile from 9. July 2006, 12:55 for CD
Dave Samuels / Natural Selection
Used drive : PLEXTOR CD-R PX-W4824A Adapter: 0 ID: 1
Read mode : Secure with NO C2, accurate stream, disable cache
Read offset correction : 98
Overread into Lead-In and Lead-Out : No
Used output format : Internal WAV Routines
44.100 Hz; 16 Bit; Stereo
Other options :
Fill up missing offset samples with silence : Yes
Delete leading and trailing silent blocks : No
Installed external ASPI interface
Range status and errors
Selected range
Filename H:\HQshare.net\Dave Samuels\CDImage.wav
Peak level 99.8 %
Range quality 100.0 %
CRC 29348FE8
Copy OK
No errors occured
End of status report
 
Содержание индексной карты (.CUE)
PERFORMER "Dave Samuels"
TITLE "Natural Selection"
FILE "Dave Samuels - Natural Selection.flac" WAVE
TRACK 01 AUDIO
TITLE "Spring High"
PERFORMER "Dave Samuels"
INDEX 01 00:00:00
TRACK 02 AUDIO
TITLE "Cara Linda"
PERFORMER "Dave Samuels"
INDEX 00 05:13:10
INDEX 01 05:16:40
TRACK 03 AUDIO
TITLE "The Red Shoes"
PERFORMER "Dave Samuels"
INDEX 00 09:41:17
INDEX 01 09:43:25
TRACK 04 AUDIO
TITLE "Mossoro's Motion"
PERFORMER "Dave Samuels"
INDEX 00 15:20:32
INDEX 01 15:25:25
TRACK 05 AUDIO
TITLE "Between the Lines"
PERFORMER "Dave Samuels"
INDEX 00 20:06:37
INDEX 01 20:09:00
TRACK 06 AUDIO
TITLE "A White Rose"
PERFORMER "Dave Samuels"
INDEX 00 25:40:22
INDEX 01 25:44:40
TRACK 07 AUDIO
TITLE "Appomattox"
PERFORMER "Dave Samuels"
INDEX 00 30:12:50
INDEX 01 30:15:70
TRACK 08 AUDIO
TITLE "Unspoken Words"
PERFORMER "Dave Samuels"
INDEX 00 35:45:00
INDEX 01 35:49:25
TRACK 09 AUDIO
TITLE "Natural Selection"
PERFORMER "Dave Samuels"
INDEX 00 40:42:50
INDEX 01 40:45:72
TRACK 10 AUDIO
TITLE "Knots"
PERFORMER "Dave Samuels"
INDEX 00 45:58:67
INDEX 01 46:02:47
 
Состав
Sonny Mediana Graphic Design
Marc Quiñones Bongos, Conga, Timbales
Doug Rose Engineer, Assistant Engineer, Mixing Assistant
Larry Rosen Producer, Executive Producer
Dave Samuels Synthesizer, Composer, Percussion, Marimba, Producer, Assistant Producer, Main Performer, Vibraphone
Larry Swist Engineer, Mixing
J. Vervold Composer
David Gibb Graphic Design
Dan Serrano Graphic Design
Andy Baltimore Creative Director
Andy Ruggirello Graphic Design
Carol Weinberg Photography
Sylvia Sanguedolce Make-Up, Hair Stylist
George Varga Liner Notes
Scott Johnson Graphic Design
Andy Russell Cover Art
Jimmy Haslip Bass
Jay Beckenstein Saxophone, Producer
Dave Grusin Producer, Executive Producer
Joseph Doughney Post Production
Julio Fernandez Guitar (Acoustic), Guitar, Producer
Russell Ferrante Synthesizer, Piano
Ted Jensen Mastering
William Kennedy Composer, Drums
Michael Landy Post Production
Michelle Lewis Production Coordination
Bruce Hornsby Piano
Jeff Beal Synthesizer, Trumpet, Composer, Flugelhorn, Arranger
20:52
349
Нет комментариев. Ваш будет первым!