Поиск

(Funk) VA - Mastercuts Funk (3CD) - 2005, FLAC (image+.cue), lossless

Треклист:
Various Artists - Mastercuts Funk (3CD)
Жанр: Funk
Год выпуска диска: 2005
Производитель диска: UK, Mastercuts
Аудио кодек: FLAC
Тип рипа: image+.cue
Битрейт аудио: lossless
Продолжительность: 2:05:27
Трэклист:
CD1
1-01 James Brown - The Payback (Live) 1:03
1-02 Ike & Tina Turner - Livin' For The City 3:27
1-03 Funkadelic - One Nation Under A Groove 7:24
1-04 Cymande - Brothers On The Slide 4:06
1-05 Sylvia Striplin - You Said 4:52
1-06 Curtis Mayfield - Move On Up (Live) 2:59
1-07 Gil Scott-Heron & Brian Jackson - The Bottle 5:12
1-08 Sly & The Family Stone - The Lady Is A Champ 2:48
1-09 Lightnin' Rod - The Shit Hits The Fan 3:37
1-10 Sir Joe Quarterman & Free Soul - I've Got So Much Trouble On My Mind 3:09
CD2
2-01 Kool & The Gang - Kind Of Funky 8:21
2-02 Fred Wesley - House Party 3:45
2-03 Jean Knight - Mr. Big Stuff 2:25
2-04 Maceo & All The King's Men - Thankyou For Letting Me Be Myself Again 6:15
2-05 Lightnin' Rod - Sport 2:33
2-06 Skullsnaps - All Of A Sudden 3:18
2-07 Cloud One - Spaced Out 6:32
2-08 Ripple - A Funky Song 3:16
2-09 Rasputin Stash - The Devil Made Me Do It 4:34
2-10 Rufus Thomas - Walking The Dog 2:28
CD3
3-01 Marvin Gaye - Inner City Blues (Live) 5:53
3-02 Kool & The Gang - Hollywood Swinging (Live) 4:59
3-03 Ike & Tina Turner - River Deep Mountain High 3:54
3-04 Jungle Band, The - Full Speed Ahead 4:40
3-05 James Brown - Sex Machine (Live) 6:38
3-06 Allen Toussaint - My Baby Is The Real Thing 3:02
3-07 Joe Tex - Who Gave Birth To The Funk 3:11
3-08 Wayne Henderson - We're Gonna Rock Your Socks Off 4:36
3-09 Jackey Beavers - Mr. Bumpman (Give Me A Hand) 2:29
3-10 Jimmy Castor Bunch - The Bertha Butt Boogie 3:47
 
logs
 
e
Exact Audio Copy V0.99 prebeta 5 from 4. May 2009
EAC extraction logfile from 14. February 2010, 0:14
Various / Mastercuts: Funk CD1
Used drive : HP DVD Writer 1040r Adapter: 1 ID: 0
Read mode : Secure
Utilize accurate stream : Yes
Defeat audio cache : Yes
Make use of C2 pointers : No
Read offset correction : 6
Overread into Lead-In and Lead-Out : No
Fill up missing offset samples with silence : Yes
Delete leading and trailing silent blocks : No
Null samples used in CRC calculations : Yes
Used interface : Native Win32 interface for Win NT & 2000
Used output format : User Defined Encoder
Selected bitrate : 1024 kBit/s
Quality : High
Add ID3 tag : No
Command line compressor : C:\Program Files\Exact Audio Copy\FLAC\FLAC.EXE
Additional command line options : -5 -V -T "ARTIST=%a" -T "TITLE=%t" -T "ALBUM=%g" -T "DATE=%y" -T "TRACKNUMBER=%n" -T "GENRE=%m" -T "COMMENT=EAC Flac 1.1.2 -5" %s
TOC of the extracted CD
Track | Start | Length | Start sector | End sector
---------------------------------------------------------
1 | 0:00.00 | 1:03.51 | 0 | 4775
2 | 1:03.51 | 3:27.40 | 4776 | 20340
3 | 4:31.16 | 7:24.01 | 20341 | 53641
4 | 11:55.17 | 4:06.21 | 53642 | 72112
5 | 16:01.38 | 4:52.64 | 72113 | 94076
6 | 20:54.27 | 2:59.37 | 94077 | 107538
7 | 23:53.64 | 5:12.22 | 107539 | 130960
8 | 29:06.11 | 2:48.58 | 130961 | 143618
9 | 31:54.69 | 3:37.14 | 143619 | 159907
10 | 35:32.08 | 3:09.01 | 159908 | 174083
Range status and errors
Selected range
Filename C:\Users\Mike3\Desktop\Mastercuts Funk (Flac)\Disc 1\Various - Mastercuts Funk CD1.wav
Peak level 96.0 %
Range quality 99.9 %
Copy CRC 4A99D71A
Copy OK
No errors occurred
AccurateRip summary
Track 1 accurately ripped (confidence 2) [DD84EC55]
Track 2 accurately ripped (confidence 2) [98CEEB95]
Track 3 accurately ripped (confidence 2) [64580E87]
Track 4 accurately ripped (confidence 2) [57C5B382]
Track 5 accurately ripped (confidence 2) [7607142E]
Track 6 accurately ripped (confidence 2) [2C8F73A0]
Track 7 accurately ripped (confidence 2) [5E35A7C7]
Track 8 accurately ripped (confidence 2) [E211E858]
Track 9 accurately ripped (confidence 2) [5B046502]
Track 10 accurately ripped (confidence 2) [4290CACA]
All tracks accurately ripped
End of status report
 
e
Exact Audio Copy V0.99 prebeta 5 from 4. May 2009
EAC extraction logfile from 14. February 2010, 0:35
Various / Mastercuts: Funk CD2
Used drive : HP DVD Writer 1040r Adapter: 1 ID: 0
Read mode : Secure
Utilize accurate stream : Yes
Defeat audio cache : Yes
Make use of C2 pointers : No
Read offset correction : 6
Overread into Lead-In and Lead-Out : No
Fill up missing offset samples with silence : Yes
Delete leading and trailing silent blocks : No
Null samples used in CRC calculations : Yes
Used interface : Native Win32 interface for Win NT & 2000
Used output format : User Defined Encoder
Selected bitrate : 1024 kBit/s
Quality : High
Add ID3 tag : No
Command line compressor : C:\Program Files\Exact Audio Copy\FLAC\FLAC.EXE
Additional command line options : -5 -V -T "ARTIST=%a" -T "TITLE=%t" -T "ALBUM=%g" -T "DATE=%y" -T "TRACKNUMBER=%n" -T "GENRE=%m" -T "COMMENT=EAC Flac 1.1.2 -5" %s
TOC of the extracted CD
Track | Start | Length | Start sector | End sector
---------------------------------------------------------
1 | 0:00.00 | 8:21.49 | 0 | 37623
2 | 8:21.49 | 3:45.07 | 37624 | 54505
3 | 12:06.56 | 2:25.36 | 54506 | 65416
4 | 14:32.17 | 6:15.27 | 65417 | 93568
5 | 20:47.44 | 2:33.35 | 93569 | 105078
6 | 23:21.04 | 3:18.66 | 105079 | 119994
7 | 26:39.70 | 6:32.73 | 119995 | 149467
8 | 33:12.68 | 3:16.46 | 149468 | 164213
9 | 36:29.39 | 4:34.69 | 164214 | 184832
10 | 41:04.33 | 2:28.24 | 184833 | 195956
Range status and errors
Selected range
Filename C:\Users\Mike3\Desktop\Mastercuts Funk (Flac)\Disc 2\Various - Mastercuts Funk CD2.wav
Peak level 88.9 %
Range quality 100.0 %
Copy CRC 1E8F315F
Copy OK
No errors occurred
AccurateRip summary
Track 1 accurately ripped (confidence 2) [118878AC]
Track 2 accurately ripped (confidence 2) [9F24D072]
Track 3 accurately ripped (confidence 2) [E2EC6A07]
Track 4 accurately ripped (confidence 2) [537AFB22]
Track 5 accurately ripped (confidence 2) [D20AEF7E]
Track 6 accurately ripped (confidence 2) [0339DE95]
Track 7 accurately ripped (confidence 2) [F4A74DB1]
Track 8 accurately ripped (confidence 2) [5D557D00]
Track 9 accurately ripped (confidence 2) [8C7D700A]
Track 10 accurately ripped (confidence 2) [455F9047]
All tracks accurately ripped
End of status report
 
e
Exact Audio Copy V0.99 prebeta 5 from 4. May 2009
EAC extraction logfile from 14. February 2010, 0:54
Various / Mastercuts: Funk CD3
Used drive : HP DVD Writer 1040r Adapter: 1 ID: 0
Read mode : Secure
Utilize accurate stream : Yes
Defeat audio cache : Yes
Make use of C2 pointers : No
Read offset correction : 6
Overread into Lead-In and Lead-Out : No
Fill up missing offset samples with silence : Yes
Delete leading and trailing silent blocks : No
Null samples used in CRC calculations : Yes
Used interface : Native Win32 interface for Win NT & 2000
Used output format : User Defined Encoder
Selected bitrate : 1024 kBit/s
Quality : High
Add ID3 tag : No
Command line compressor : C:\Program Files\Exact Audio Copy\FLAC\FLAC.EXE
Additional command line options : -5 -V -T "ARTIST=%a" -T "TITLE=%t" -T "ALBUM=%g" -T "DATE=%y" -T "TRACKNUMBER=%n" -T "GENRE=%m" -T "COMMENT=EAC Flac 1.1.2 -5" %s
TOC of the extracted CD
Track | Start | Length | Start sector | End sector
---------------------------------------------------------
1 | 0:00.00 | 5:53.13 | 0 | 26487
2 | 5:53.13 | 4:59.58 | 26488 | 48970
3 | 10:52.71 | 3:54.61 | 48971 | 66581
4 | 14:47.57 | 4:40.58 | 66582 | 87639
5 | 19:28.40 | 6:38.53 | 87640 | 117542
6 | 26:07.18 | 3:02.05 | 117543 | 131197
7 | 29:09.23 | 3:11.29 | 131198 | 145551
8 | 32:20.52 | 4:36.06 | 145552 | 166257
9 | 36:56.58 | 2:29.38 | 166258 | 177470
10 | 39:26.21 | 3:47.61 | 177471 | 194556
Range status and errors
Selected range
Filename C:\Users\Mike3\Desktop\Mastercuts Funk (Flac)\Disc 3\Various - Mastercuts Funk CD3.wav
Peak level 99.3 %
Range quality 99.9 %
Copy CRC 79577C3B
Copy OK
No errors occurred
AccurateRip summary
Track 1 accurately ripped (confidence 2) [224EAD0B]
Track 2 accurately ripped (confidence 2) [668DB0E2]
Track 3 accurately ripped (confidence 2) [8E260420]
Track 4 accurately ripped (confidence 2) [B824DDD1]
Track 5 accurately ripped (confidence 2) [9D73A065]
Track 6 accurately ripped (confidence 2) [04A5AAC0]
Track 7 accurately ripped (confidence 2) [BDE360E9]
Track 8 accurately ripped (confidence 2) [87813908]
Track 9 accurately ripped (confidence 2) [10E85D6D]
Track 10 accurately ripped (confidence 2) [0566D77A]
All tracks accurately ripped
End of status report
avaxhome.ws/
Приватный:
Нет (DHT включён)
Размер:
703.40 Мб (737,568,581 байт) » файлов: 24
Участники:
0 раздают, 0 качают (0 участников всего)
Внешние участники:
3 раздают, 1 качают (4 участников всего) [ Обновить ]
Никого нет на раздаче - пишите личное сообщение M0p94ok
No seeders - write personal message to M0p94ok
03:47
32
Нет комментариев. Ваш будет первым!