Поиск

(Funk, R&B) VA - James Brown's Funky People (Part 1) - 1986, FLAC (image+.cue), lossless

Треклист:
Various Artists - James Brown's Funky People (Part 1)
Исполнитель: Various Artists
Альбом: James Brown's Funky People (Part 1)
Жанр: Funk, R&B
Год выпуска диска: 1986 (1988)
Производитель диска: Polydor /Germany
Аудио кодек: FLAC
Тип рипа: image+.cue
Битрейт аудио: lossless
Продолжительность: 47:02
Трэклист:
01. The JBs - Gimme Some More
02. The JBs - Pass The Peas
03. Lyn Collins - Think (About It)
04. The JBs - Givin' Up Food For Funk (Part 1)
05. Lyn Collins (The Female Preacher) - Mama Feelgood
06. The JBs - Hot Pants Road
07. Lyn Collins (The Female Preacher) - Rock Me Again & Again & Again & Again & Again
08. Fred Wesley & The JBs - Damn Right, I Am Somebody (Parts1 & 2)
09. Lyn Collins (The Female Preacher) - Take Me Just As I Am
10. Fred Wesley & The JBs - If You Don't Get It the FirstTime, Back Up and Try It Again, Party
11. Maceo & The Macks - Parrty (Part 1)
12. Fred & The New JBs - (It's Not The Express) It's The JBs Monaurail (Part 1)
13. Fred Wesley & The JBs - Same Beat (Part 1)
 
Log EAC
Exact Audio Copy V0.99 prebeta 5 from 4. May 2009
Отчёт EAC об извлечении, выполненном 7. апреля 2010, 23:15
Various / James Brown's Funky People
Дисковод: MATSHITAUJDA755 DVD/CDRW Adapter: 1 ID: 0
Режим чтения : Достоверность
Использование точного потока : Да
Отключение кэша аудио : Да
Использование указателей C2 : Нет
Коррекция смещения при чтении : 102
Способность читать области Lead-in и Lead-out : Нет
Заполнение пропущенных сэмплов тишиной : Да
Удаление блоков с тишиной в начале и конце : Нет
При вычислениях CRC использовались нулевые сэмплы : Да
Интерфейс : Встроенный Win32-интерфейс для Win NT/2000
Выходной формат : Пользовательский кодировщик
Выбранный битрейт : 768 kBit/s
Качество : Высокий
Добавление ID3-тэга : Нет
Утилита сжатия : C:\Program Files\Exact Audio Copy\FLAC\FLAC.EXE
Дополнительные параметры : -8 -V %s
TOC извлечённого CD
Трек | Старт | Длительность | Начальный сектор | Конечный сектор
---------------------------------------------------------------------
1 | 0:00.33 | 3:05.12 | 33 | 13919
2 | 3:05.45 | 3:14.00 | 13920 | 28469
3 | 6:19.45 | 3:24.00 | 28470 | 43769
4 | 9:43.45 | 3:11.13 | 43770 | 58107
5 | 12:54.58 | 3:30.12 | 58108 | 73869
6 | 16:24.70 | 2:46.13 | 73870 | 86332
7 | 19:11.08 | 3:26.25 | 86333 | 101807
8 | 22:37.33 | 6:25.62 | 101808 | 130744
9 | 29:03.20 | 3:32.38 | 130745 | 146682
10 | 32:35.58 | 3:35.50 | 146683 | 162857
11 | 36:11.33 | 3:24.50 | 162858 | 178207
12 | 39:36.08 | 4:06.47 | 178208 | 196704
13 | 43:42.55 | 3:19.65 | 196705 | 211694
Характеристики диапазона извлечения и сообщения об ошибках
Выбранный диапазон
Имя файла G:\FLACи\James Brown's Funky People - 1988\Various - James Brown's Funky People.wav
Пиковый уровень 97.7 %
Качество диапазона 100.0 %
CRC теста 2DC90557
CRC копии 2DC90557
Копирование... OK
Ошибок не произошло
AccurateRip: сводка
Трек 1 точность не определена (достоверность 8) [A8C409C9], AccurateRip вернул [882A4663]
Трек 2 точность не определена (достоверность 9) [9884CDE7], AccurateRip вернул [458622A9]
Трек 3 точность не определена (достоверность 9) [620F17E2], AccurateRip вернул [5B133C36]
Трек 4 точность не определена (достоверность 9) [0034A5E8], AccurateRip вернул [70F22F4A]
Трек 5 точность не определена (достоверность 9) [4F364A54], AccurateRip вернул [1C8675B6]
Трек 6 точность не определена (достоверность 9) [1594BDDE], AccurateRip вернул [C053168C]
Трек 7 точность не определена (достоверность 9) [8B58A338], AccurateRip вернул [9ABAAE70]
Трек 8 точность не определена (достоверность 8) [DA646112], AccurateRip вернул [50A72778]
Трек 9 точность не определена (достоверность 9) [2F7451F2], AccurateRip вернул [AFB13B5A]
Трек 10 точность не определена (достоверность 9) [536D5D9D], AccurateRip вернул [8D938F0F]
Трек 11 точность не определена (достоверность 9) [37C5FBDB], AccurateRip вернул [C2B14229]
Трек 12 точность не определена (достоверность 8) [C6126F96], AccurateRip вернул [713A2134]
Трек 13 точность не определена (достоверность 8) [0B0F3F87], AccurateRip вернул [0579C0D3]
Ни один трек не прошёл проверки на точность
В вашей базе может быть иной вариант штамповки диска
Конец отчёта
 
Disc


Рип с диска из моей коллекции. Сканы 600 dpi.
Приватный:
Нет (DHT включён)
Размер:
281.97 Мб (295,669,270 байт) » файлов: 8
Участники:
0 раздают, 0 качают (0 участников всего)
Внешние участники:
2 раздают, 1 качают (3 участников всего) [ Обновить ]
Никого нет на раздаче - пишите личное сообщение M0p94ok
No seeders - write personal message to M0p94ok
04:03
26
Нет комментариев. Ваш будет первым!