Поиск

(Funk / Soul / Blaxploitation) VA - Can You Dig It? The Music And Politics Of Black Action Films 1969-1975 - 2009, FLAC (image+.cue), lossless

(Funk / Soul / Blaxploitation) VA - Can You Dig It? The Music And Politics Of Black Action Films 1969-1975 - 2009, FLAC (image+.cue), lossless
Треклист:
V/A Can You Dig It? The Music And Politics Of Black Action Films 1969-1975
Жанр: Funk / Soul / Blaxploitation
Год выпуска диска: 2009
Производитель диска: UK
Label: Soul Jazz Records (SJR CD214)
Аудио кодек: FLAC
Тип рипа: image+.cue
Битрейт аудио: lossless
Продолжительность: 56:40 / 65:14
 
Трэклист
 
Disc 1
01. Roy Ayers - Coffy Is The Color
02. Gene Page - Blacula
03. Johnny Pate - Shaft In Africa
04. Willie Hutch - Brother's Gonna Work It Out
05. Don Costa - Charley
06. Marvin Gaye - 'T' Plays It Cool
07. Bobby Womack - Across 110th Street
08. J.J. Johnson - Willie Chase
09. James Brown - Down And Out In New York City
10. Quincy Jones - They Call Me Mister Tibbs
11. Martha Reeves - Keep On Movin' On
12. Dennis Coffey - Theme From Black Belt Jones
13. Curtis Mayfield - Freddie's Dead
14. The Blackbyrds - Wilford's Gone
15. Willie Hutch - Theme Of Foxy Brown
16. Isaac Hayes - Run Fay Run
 
Disc 2
01. Isaac Hayes - Shaft
02. Curtis Mayfield - Pusherman
03. Joe Simon - Theme From Cleopatra Jones
04. Johnny Pate - You Can't Even Walk In The Park
05. Brer Soul & Earth, Wind And Fire - Sweetback's Theme
06. James Brown - Make It Good To Yourself
07. Isaac Hayes - Pursuit Of The Pimpmobile
08. Grant Green - Travelling To Get To Doc
09. Booker T & the MG's - Time Is Tight
10. Roy Ayers - Aragon
11. Edwin Starr - Easin' In
12. Gordon Staples & The String Thing - Strung Out
13. Nat Dove & The Devils - Zombie March
14. The Impressions - Make A Resolution
15. Solomon Burke and Gene Page - The Bus
16. Jack Ashford - Las Vegas Strut
17. Don Julian - Lay It On Your Head
18. Galt MacDermot - Ed And Digger
 
Отчет EAC
 
Disc 1
Exact Audio Copy V0.99 prebeta 5 from 4. May 2009
EAC extraction logfile from 1. November 2009, 21:50
Various / Can You Dig It? The Music and Politics of Black Action Films
Used drive : HP DVD Writer 1040r Adapter: 1 ID: 0
Read mode : Secure
Utilize accurate stream : Yes
Defeat audio cache : Yes
Make use of C2 pointers : No
Read offset correction : 6
Overread into Lead-In and Lead-Out : No
Fill up missing offset samples with silence : Yes
Delete leading and trailing silent blocks : No
Null samples used in CRC calculations : Yes
Used interface : Native Win32 interface for Win NT & 2000
Used output format : User Defined Encoder
Selected bitrate : 1024 kBit/s
Quality : High
Add ID3 tag : No
Command line compressor : C:\Program Files\Exact Audio Copy\FLAC\FLAC.EXE
Additional command line options : -5 -V -T "ARTIST=%a" -T "TITLE=%t" -T "ALBUM=%g" -T "DATE=%y" -T "TRACKNUMBER=%n" -T "GENRE=%m" -T "COMMENT=EAC Flac 1.1.2 -5" %s
TOC of the extracted CD
Track | Start | Length | Start sector | End sector
---------------------------------------------------------
1 | 0:00.00 | 3:00.57 | 0 | 13556
2 | 3:00.57 | 2:39.34 | 13557 | 25515
3 | 5:40.16 | 3:04.22 | 25516 | 39337
4 | 8:44.38 | 4:46.10 | 39338 | 60797
5 | 13:30.48 | 3:20.20 | 60798 | 75817
6 | 16:50.68 | 4:26.52 | 75818 | 95819
7 | 21:17.45 | 3:46.33 | 95820 | 112802
8 | 25:04.03 | 3:06.19 | 112803 | 126771
9 | 28:10.22 | 4:41.54 | 126772 | 147900
10 | 32:52.01 | 4:32.35 | 147901 | 168335
11 | 37:24.36 | 3:37.25 | 168336 | 184635
12 | 41:01.61 | 2:38.73 | 184636 | 196558
13 | 43:40.59 | 5:25.18 | 196559 | 220951
14 | 49:06.02 | 2:20.62 | 220952 | 231513
15 | 51:26.64 | 2:24.65 | 231514 | 242378
16 | 53:51.54 | 2:48.27 | 242379 | 255005
Range status and errors
Selected range
Filename C:\Users\Mike3\Desktop\Can You Dig It - The Music and Politics of Black Action Films (Flac)\Disc 1\Various - Can You Dig It The Music and Politics of Black Action Films.wav
Peak level 99.6 %
Range quality 100.0 %
Copy CRC 725D85F2
Copy OK
No errors occurred
AccurateRip summary
Track 1 not present in database
Track 2 not present in database
Track 3 not present in database
Track 4 not present in database
Track 5 not present in database
Track 6 not present in database
Track 7 not present in database
Track 8 not present in database
Track 9 not present in database
Track 10 not present in database
Track 11 not present in database
Track 12 not present in database
Track 13 not present in database
Track 14 not present in database
Track 15 not present in database
Track 16 not present in database
None of the tracks are present in the AccurateRip database
End of status report
 
Disc 2
Exact Audio Copy V0.99 prebeta 5 from 4. May 2009
EAC extraction logfile from 1. November 2009, 22:24
Various Artists / Can You Dig It The Music And Politics Of Black Actions Films CD2
Used drive : HP DVD Writer 1040r Adapter: 1 ID: 0
Read mode : Secure
Utilize accurate stream : Yes
Defeat audio cache : Yes
Make use of C2 pointers : No
Read offset correction : 6
Overread into Lead-In and Lead-Out : No
Fill up missing offset samples with silence : Yes
Delete leading and trailing silent blocks : No
Null samples used in CRC calculations : Yes
Used interface : Native Win32 interface for Win NT & 2000
Used output format : User Defined Encoder
Selected bitrate : 1024 kBit/s
Quality : High
Add ID3 tag : No
Command line compressor : C:\Program Files\Exact Audio Copy\FLAC\FLAC.EXE
Additional command line options : -5 -V -T "ARTIST=%a" -T "TITLE=%t" -T "ALBUM=%g" -T "DATE=%y" -T "TRACKNUMBER=%n" -T "GENRE=%m" -T "COMMENT=EAC Flac 1.1.2 -5" %s
TOC of the extracted CD
Track | Start | Length | Start sector | End sector
---------------------------------------------------------
1 | 0:00.00 | 4:36.68 | 0 | 20767
2 | 4:36.68 | 5:02.11 | 20768 | 43428
3 | 9:39.04 | 3:44.40 | 43429 | 60268
4 | 13:23.44 | 2:32.27 | 60269 | 71695
5 | 15:55.71 | 3:25.36 | 71696 | 87106
6 | 19:21.32 | 3:17.03 | 87107 | 101884
7 | 22:38.35 | 9:03.73 | 101885 | 142682
8 | 31:42.33 | 1:40.06 | 142683 | 150188
9 | 33:22.39 | 4:57.71 | 150189 | 172534
10 | 38:20.35 | 2:52.22 | 172535 | 185456
11 | 41:12.57 | 2:59.39 | 185457 | 198920
12 | 44:12.21 | 4:50.49 | 198921 | 220719
13 | 49:02.70 | 3:20.00 | 220720 | 235719
14 | 52:22.70 | 3:08.02 | 235720 | 249821
15 | 55:30.72 | 2:12.22 | 249822 | 259743
16 | 57:43.19 | 2:21.19 | 259744 | 270337
17 | 60:04.38 | 3:31.51 | 270338 | 286213
18 | 63:36.14 | 2:11.41 | 286214 | 296079
Range status and errors
Selected range
Filename C:\Users\Mike3\Desktop\Can You Dig It - The Music and Politics of Black Action Films (Flac)\Disc 2\Various Artists - Can You Dig It The Music And Politics Of Black Actions Films CD2.wav
Peak level 100.0 %
Range quality 100.0 %
Copy CRC 9107DDCB
Copy OK
No errors occurred
AccurateRip summary
Track 1 not present in database
Track 2 not present in database
Track 3 not present in database
Track 4 not present in database
Track 5 not present in database
Track 6 not present in database
Track 7 not present in database
Track 8 not present in database
Track 9 not present in database
Track 10 not present in database
Track 11 not present in database
Track 12 not present in database
Track 13 not present in database
Track 14 not present in database
Track 15 not present in database
Track 16 not present in database
Track 17 not present in database
Track 18 not present in database
None of the tracks are present in the AccurateRip database
End of status report
 
auCDtect
 
Disc 1
-----------------------
DON'T MODIFY THIS FILE
-----------------------
PERFORMER: auCDtect Task Manager, ver. 1.0.0 Stable build 1.0.0.0
Copyright (c) 2008, 2009 y-soft. All rights reserved
http://y-soft.110mb.com
ANALYZER: auCDtect: CD records authenticity detector, version 0.8.2
Copyright (c) 2004 Oleg Berngardt. All rights reserved.
Copyright (c) 2004 Alexander Djourik. All rights reserved.
FILE: Various - Can You Dig It The Music and Politics of Black Action Films.flac
Size: 382025748 Hash: 9ABBB63C793F1D9A314A5994044282BF Accuracy: -m8
Conclusion: CDDA 100%
Signature: 14FBDC568B818060CAB071F2A1E412B74A85353B
 
Disc 2
-----------------------
DON'T MODIFY THIS FILE
-----------------------
PERFORMER: auCDtect Task Manager, ver. 1.0.0 Stable build 1.0.0.0
Copyright (c) 2008, 2009 y-soft. All rights reserved
http://y-soft.110mb.com
ANALYZER: auCDtect: CD records authenticity detector, version 0.8.2
Copyright (c) 2004 Oleg Berngardt. All rights reserved.
Copyright (c) 2004 Alexander Djourik. All rights reserved.
FILE: Various Artists - Can You Dig It The Music And Politics Of Black Actions Films CD2.flac
Size: 447036090 Hash: 4A9D05B8CD4531C110C328F5A55BA6FB Accuracy: -m8
Conclusion: CDDA 100%
Signature: C79042B26ECD1169687325143F872972C06F973D
Источник: [релизер: Fatal1ty]
Доп. информация: сканы присутствуют
Мои раздачи на трекере / My other uploads
Приватный:
Нет (DHT включён)
Размер:
797.53 Мб (836,274,541 байт) » файлов: 17
Участники:
0 раздают, 0 качают (0 участников всего)
Внешние участники:
3 раздают, 1 качают (4 участников всего) [ Обновить ]
Никого нет на раздаче - пишите личное сообщение M0p94ok
No seeders - write personal message to M0p94ok
03:42
21
Нет комментариев. Ваш будет первым!