Поиск

(Afrobeat/funk/jazz) VA - Redhot + Riot (The Music and Spirit of Fela) - 2002, FLAC (tracks+.cue), lossless

Треклист:
VA - REDHOT + RIOT (The Music and Spirit of Fela)
Жанр: Afrobeat/funk/jazz
Год выпуска диска: 2002
Производитель диска: The Red Hot Organization / MCA Records (Germany)
Аудио кодек: FLAC
Тип рипа: tracks+.cue
Битрейт аудио: lossless
Продолжительность: 01 : 15 : 55
Трэклист:
1. Fela Mentality (Intro) - Fela Kuti
2. Kalakuta Show - Gab & Lateef
3. Interlude: Live At Kalakuta - Fela Kuti
4. Shuffering & Shmiling - Dead Prez, Talib Kewli, Jorge Ben and Bilal
5. Interlude: Gimme Sh*t - Mixmaster Mike
6. Water No Get Enemy - Mixmaster Mike
7. Water No Get Enemy - D'Angelo, Femi Kuti, Macy Gray & The Soultronics (feat. Nile Rodgers & Roy Hargrove)
8. Gentleman - MeShell Ndegeocello & Yerba Buena (feat. Ron Blake)
9. Years Of Tears and Sorrow - Common & Djelimady Tounkara
10. Shakara/ Lady (Part One) - Cheikh Lo
11. Shakara/Lady (Part Two) - Cheikh Lo, Les Nubians and Manu Dibango
12. Don't Worry About My Mouth O (African Message) - Fela Kuti
13. Zombie (Part One) - Bugz In The Attic (feat. Wunmi)
14. Zombie (Part Two) - Nile Rodgers & Roy Hargrove
15. No Agreement - Res, Tony Allen, Ray Lema, Baaba Maa, Positive Black Soul & Archie Shepp
16. So Be It - Kelis
17. Interlude/This Is An Ashanti Proverb - Fela Kuti
18. By Your Side - Sade (Cottonbelly Remix)
19. Colonial Mentality - Yerba Buena
20. Trouble Sleep Yanga Wake Am - Baaba Maal & Taj Mahal (feat. Kaouding Cissoko)
Доп. информация: рип сделан с оригинального cd из моей коллекции . этот cd побывал в руках многих моих друзей и знакомых в возрасте от 15 до 50 лет . равнодушных небыло . жизнь и отчаяние до края . english - http://www.redhot.org/
 
скрытый текст
Exact Audio Copy V0.99 prebeta 5 from 4. May 2009
Отчёт EAC об извлечении, выполненном 23. марта 2010, 5:30
Various Artists / Red Hot + Riot
Дисковод: SONY DVD RW DRX-S70U Adapter: 2 ID: 0
Режим чтения : Достоверность
Использование точного потока : Да
Отключение кэша аудио : Да
Использование указателей C2 : Нет
Коррекция смещения при чтении : 48
Способность читать области Lead-in и Lead-out : Нет
Заполнение пропущенных сэмплов тишиной : Да
Удаление блоков с тишиной в начале и конце : Нет
При вычислениях CRC использовались нулевые сэмплы : Да
Интерфейс : Встроенный Win32-интерфейс для Win NT/2000
Обработка зазоров : Добавлено к предыдущему треку
Выходной формат : Пользовательский кодировщик
Выбранный битрейт : 768 kBit/s
Качество : Высокий
Добавление ID3-тэга : Нет
Утилита сжатия : C:\Program Files\Exact Audio Copy\FLAC\FLAC.EXE
Дополнительные параметры : -6 -V -T "ARTIST=%a" -T "TITLE=%t" -T "ALBUM=%g" -T "DATE=%y" -T "TRACKNUMBER=%n" -T "GENRE=%m" -T "COMMENT=%e" %s -o %d
TOC извлечённого CD
Трек | Старт | Длительность | Начальный сектор | Конечный сектор
---------------------------------------------------------------------
1 | 0:00.00 | 1:09.45 | 0 | 5219
2 | 1:09.45 | 2:31.17 | 5220 | 16561
3 | 3:40.62 | 0:32.15 | 16562 | 18976
4 | 4:13.02 | 7:50.05 | 18977 | 54231
5 | 12:03.07 | 0:31.43 | 54232 | 56599
6 | 12:34.50 | 4:04.30 | 56600 | 74929
7 | 16:39.05 | 6:05.70 | 74930 | 102374
8 | 22:45.00 | 7:02.70 | 102375 | 134094
9 | 29:47.70 | 1:31.27 | 134095 | 140946
10 | 31:19.22 | 2:20.05 | 140947 | 151451
11 | 33:39.27 | 4:47.13 | 151452 | 172989
12 | 38:26.40 | 1:03.32 | 172990 | 177746
13 | 39:29.72 | 2:51.70 | 177747 | 190641
14 | 42:21.67 | 4:27.38 | 190642 | 210704
15 | 46:49.30 | 8:12.02 | 210705 | 247606
16 | 55:01.32 | 3:52.15 | 247607 | 265021
17 | 58:53.47 | 0:09.58 | 265022 | 265754
18 | 59:03.30 | 4:39.67 | 265755 | 286746
19 | 63:43.22 | 1:34.10 | 286747 | 293806
20 | 65:17.32 | 10:38.20 | 293807 | 341676
Трек 1
Имя файла d:\My Documents\Redhot+Riot\01.Mixmaster Mike & Mario Caldato, Jr.-Fela Mentality (Intro).wav
Длина предзазора 0:00:02.00
Пиковый уровень 100.0 %
Качество трека 100.0 %
CRC теста 4B72D758
CRC копии 4B72D758
Точное извлечение (достоверность 9) [A170713A]
Копирование... OK
Трек 2
Имя файла d:\My Documents\Redhot+Riot\02.Mixmaster Mike, Lateef & The Gift Of Gab-Kalakuta Show.wav
Пиковый уровень 100.0 %
Качество трека 100.0 %
CRC теста 76F0C979
CRC копии 76F0C979
Точное извлечение (достоверность 9) [2CBBAB01]
Копирование... OK
Трек 3
Имя файла d:\My Documents\Redhot+Riot\03.Posma, Remedies, Taiwo, Segun, Tosin, Andres Levin-Live At Kalakuta (Interlude).wav
Пиковый уровень 79.3 %
Качество трека 99.6 %
CRC теста E524D7F7
CRC копии E524D7F7
Точное извлечение (достоверность 9) [40CE1D51]
Копирование... OK
Трек 4
Имя файла d:\My Documents\Redhot+Riot\04.Dead Prez, Jorge Ben Jor, Talib Kweli, Bilal & Postive Force-Shuffering & Shmiling.wav
Пиковый уровень 99.8 %
Качество трека 100.0 %
CRC теста CB86EC27
CRC копии CB86EC27
Точное извлечение (достоверность 9) [E47310B4]
Копирование... OK
Трек 5
Имя файла d:\My Documents\Redhot+Riot\05.Mixmaster Mike & Mario Caldato, Jr.-Gimme Shit (Interlude).wav
Пиковый уровень 94.3 %
Качество трека 100.0 %
CRC теста 1DA2D459
CRC копии 1DA2D459
Точное извлечение (достоверность 9) [F23DC97E]
Копирование... OK
Трек 6
Имя файла d:\My Documents\Redhot+Riot\06.D'Angelo & Femi Kuti-Water Get No Enemy (Intro).wav
Пиковый уровень 100.0 %
Качество трека 99.9 %
CRC теста 698F9FC5
CRC копии 698F9FC5
Точное извлечение (достоверность 9) [D454DAC6]
Копирование... OK
Трек 7
Имя файла d:\My Documents\Redhot+Riot\07.D'Angelo, Femi Kuti, & Macy Gray (Featuring Roy Hargrove, Nile Rodgers, The Soultronics & Positive Force)-Water Get No Enemy.wav
Пиковый уровень 99.8 %
Качество трека 99.9 %
CRC теста 771AE755
CRC копии 771AE755
Точное извлечение (достоверность 9) [994179F8]
Копирование... OK
Трек 8
Имя файла d:\My Documents\Redhot+Riot\08.Meshell Ndegeocello & Yerba Buena (Featuring Ron Blake)-Gentleman.wav
Пиковый уровень 94.2 %
Качество трека 100.0 %
CRC теста E78F5A4E
CRC копии E78F5A4E
Точное извлечение (достоверность 9) [8712CA41]
Копирование... OK
Трек 9
Имя файла d:\My Documents\Redhot+Riot\09.Common, Meshell Ndegeocello & Djelimady Tounkara-Tears & Sorrow.wav
Пиковый уровень 99.8 %
Качество трека 100.0 %
CRC теста 8F352DE9
CRC копии 8F352DE9
Точное извлечение (достоверность 9) [03F59070]
Копирование... OK
Трек 10
Имя файла d:\My Documents\Redhot+Riot\10.Cheikh Lo-Shakara-Lady (Part One).wav
Пиковый уровень 99.8 %
Качество трека 100.0 %
CRC теста FC7F1411
CRC копии FC7F1411
Точное извлечение (достоверность 9) [6D0A9427]
Копирование... OK
Трек 11
Имя файла d:\My Documents\Redhot+Riot\11.Cheikh Lo, Les Nubians & Manu Dibango (Featuring Chateau Flight)-Shakara-Lady (Part Two).wav
Пиковый уровень 99.8 %
Качество трека 100.0 %
CRC теста 2D58792E
CRC копии 2D58792E
Точное извлечение (достоверность 9) [9F52F693]
Копирование... OK
Трек 12
Имя файла d:\My Documents\Redhot+Riot\12.Monoaural-Don't Worry About My Mouth-o (Interlude).wav
Пиковый уровень 79.3 %
Качество трека 99.8 %
CRC теста E5230E04
CRC копии E5230E04
Точное извлечение (достоверность 9) [E2AF2E56]
Копирование... OK
Трек 13
Имя файла d:\My Documents\Redhot+Riot\13.Bugz In The Attic (Featuring Wunmi)-Zombie (Part One).wav
Пиковый уровень 100.0 %
Качество трека 100.0 %
CRC теста DCDE5711
CRC копии DCDE5711
Точное извлечение (достоверность 9) [481B4368]
Копирование... OK
Трек 14
Имя файла d:\My Documents\Redhot+Riot\14.Instrumental (Featuring Nile Rodgers, Roy Hargrove & Money Mark)-Zombie (Part Two).wav
Пиковый уровень 89.4 %
Качество трека 100.0 %
CRC теста 55C2E3FA
CRC копии 55C2E3FA
Точное извлечение (достоверность 8) [669CFD2A]
Копирование... OK
Трек 15
Имя файла d:\My Documents\Redhot+Riot\15.Tony Allen, Res, Ray Lema, Baaba Maal, Postive Black Soul & Archie Shepp-No Agreement.wav
Пиковый уровень 100.0 %
Качество трека 100.0 %
CRC теста 7F5A3BD7
CRC копии 7F5A3BD7
Точное извлечение (достоверность 8) [7918FC5A]
Копирование... OK
Трек 16
Имя файла d:\My Documents\Redhot+Riot\16.Kelis-So Be It.wav
Подозрительная позиция 0:02:58
Пиковый уровень 99.8 %
Качество трека 99.2 %
CRC теста 56001A9B
CRC копии ADDF926B
Точность не определена (достоверность 13) [C8F0C2FF], AccurateRip вернул [1B3129E6]
Копирование завершено
Трек 17
Имя файла d:\My Documents\Redhot+Riot\17.Monoaural-This Is An Ashanti Proverb (Interlude).wav
Пиковый уровень 70.8 %
Качество трека 100.0 %
CRC теста 0D7B0F98
CRC копии 0D7B0F98
Точное извлечение (достоверность 8) [4BD5DBB6]
Копирование... OK
Трек 18
Имя файла d:\My Documents\Redhot+Riot\18.Sade-By Your Side (Cottonbelly's Fola Mix Edit).wav
Пиковый уровень 100.0 %
Качество трека 99.9 %
CRC теста 36406C0B
CRC копии 36406C0B
Точное извлечение (достоверность 8) [018BAE30]
Копирование... OK
Трек 19
Имя файла d:\My Documents\Redhot+Riot\19.Yerba Buena & Lenine-Colonial Mentality.wav
Пиковый уровень 94.2 %
Качество трека 100.0 %
CRC теста 1CEA64EC
CRC копии 1CEA64EC
Точное извлечение (достоверность 9) [69B51FBF]
Копирование... OK
Трек 20
Имя файла d:\My Documents\Redhot+Riot\20.Baaba Maal & Taj Mahal (Featuring Kaouding Cissoko & Antibalas)-Trouble Sleep Yanga Wake Am.wav
Пиковый уровень 99.8 %
Качество трека 99.7 %
CRC теста 0ECA6B54
CRC копии 0ECA6B54
Точное извлечение (достоверность 7) [02B937A7]
Копирование... OK
19 трек(и) скопированы точно
1 трек(и) не удалось проверить на точность
Некоторые треки не прошли проверку на точность
Были ошибки
Конец отчёта
 
скрытый текст
AUDIOCHECKER v2.0 beta (build 457) - by Dester - opdester@freemail.hu
~~~~~~~~~~~~~~~~~~~~~~~~~~~~~~~~~~
-=== DO NOT EDIT THIS FILE! ===-
Путь: ...\Redhot+Riot
01 -=- 01.Mixmaster Mike & Mario Caldato, Jr.-Fela Mentality (Intro).flac -=- CDDA (99%)
02 -=- 02.Mixmaster Mike, Lateef & The Gift Of Gab-Kalakuta Show.flac -=- CDDA (100%)
03 -=- 03.Posma, Remedies, Taiwo, Segun, Tosin, Andres Levin-Live At Kalakuta (Interlude).flac -=- CDDA (100%)
04 -=- 04.Dead Prez, Jorge Ben Jor, Talib Kweli, Bilal & Postive Force-Shuffering & Shmiling.flac -=- CDDA (100%)
05 -=- 05.Mixmaster Mike & Mario Caldato, Jr.-Gimme Shit (Interlude).flac -=- CDDA (100%)
06 -=- 06.D'Angelo & Femi Kuti-Water Get No Enemy (Intro).flac -=- CDDA (100%)
07 -=- 07.D'Angelo, Femi Kuti, & Macy Gray (Featuring Roy Hargrove, Nile Rodgers, The Soultronics & Positive Force)-Water Get No Enemy.flac -=- CDDA (100%)
08 -=- 08.Meshell Ndegeocello & Yerba Buena (Featuring Ron Blake)-Gentleman.flac -=- CDDA (100%)
09 -=- 09.Common, Meshell Ndegeocello & Djelimady Tounkara-Tears & Sorrow.flac -=- CDDA (100%)
10 -=- 10.Cheikh Lo-Shakara-Lady (Part One).flac -=- CDDA (100%)
11 -=- 11.Cheikh Lo, Les Nubians & Manu Dibango (Featuring Chateau Flight)-Shakara-Lady (Part Two).flac -=- CDDA (100%)
12 -=- 12.Monoaural-Don't Worry About My Mouth-o (Interlude).flac -=- CDDA (100%)
13 -=- 13.Bugz In The Attic (Featuring Wunmi)-Zombie (Part One).flac -=- CDDA (100%)
14 -=- 14.Instrumental (Featuring Nile Rodgers, Roy Hargrove & Money Mark)-Zombie (Part Two).flac -=- CDDA (99%)
15 -=- 15.Tony Allen, Res, Ray Lema, Baaba Maal, Postive Black Soul & Archie Shepp-No Agreement.flac -=- CDDA (100%)
16 -=- 16.Kelis-So Be It.flac -=- CDDA (100%)
17 -=- 17.Monoaural-This Is An Ashanti Proverb (Interlude).flac -=- CDDA (100%)
18 -=- 18.Sade-By Your Side (Cottonbelly's Fola Mix Edit).flac -=- CDDA (100%)
19 -=- 19.Yerba Buena & Lenine-Colonial Mentality.flac -=- CDDA (100%)
20 -=- 20.Baaba Maal & Taj Mahal (Featuring Kaouding Cissoko & Antibalas)-Trouble Sleep Yanga Wake Am.flac -=- CDDA (100%)
Сводка 99,90% CDDA
106026932
 
скрытый текст
REM GENRE R&B
REM DATE 2002
REM DISCID 0611CB14
REM COMMENT "ExactAudioCopy v0.99pb5"
PERFORMER "Various Artists"
TITLE "Red Hot + Riot"
FILE "01.Mixmaster Mike & Mario Caldato, Jr.-Fela Mentality (Intro).wav" WAVE
TRACK 01 AUDIO
TITLE "Fela Mentality (Intro)"
PERFORMER "Mixmaster Mike & Mario Caldato, Jr."
INDEX 01 00:00:00
FILE "02.Mixmaster Mike, Lateef & The Gift Of Gab-Kalakuta Show.wav" WAVE
TRACK 02 AUDIO
TITLE "Kalakuta Show"
PERFORMER "Mixmaster Mike, Lateef & The Gift Of Gab"
INDEX 01 00:00:00
FILE "03.Posma, Remedies, Taiwo, Segun, Tosin, Andres Levin-Live At Kalakuta (Interlude).wav" WAVE
TRACK 03 AUDIO
TITLE "Live At Kalakuta (Interlude)"
PERFORMER "Posma, Remedies, Taiwo, Segun, Tosin, Andres Levin"
INDEX 01 00:00:00
FILE "04.Dead Prez, Jorge Ben Jor, Talib Kweli, Bilal & Postive Force-Shuffering & Shmiling.wav" WAVE
TRACK 04 AUDIO
TITLE "Shuffering & Shmiling"
PERFORMER "Dead Prez, Jorge Ben Jor, Talib Kweli, Bilal & Postive Force"
INDEX 01 00:00:00
FILE "05.Mixmaster Mike & Mario Caldato, Jr.-Gimme Shit (Interlude).wav" WAVE
TRACK 05 AUDIO
TITLE "Gimme Shit (Interlude)"
PERFORMER "Mixmaster Mike & Mario Caldato, Jr."
INDEX 01 00:00:00
FILE "06.D'Angelo & Femi Kuti-Water Get No Enemy (Intro).wav" WAVE
TRACK 06 AUDIO
TITLE "Water Get No Enemy (Intro)"
PERFORMER "D'Angelo & Femi Kuti"
INDEX 01 00:00:00
FILE "07.D'Angelo, Femi Kuti, & Macy Gray (Featuring Roy Hargrove, Nile Rodgers, The Soultronics & Positive Force)-Water Get No Enemy.wav" WAVE
TRACK 07 AUDIO
TITLE "Water Get No Enemy"
PERFORMER "D'Angelo, Femi Kuti, & Macy Gray (Featuring Roy Hargrove, Nile Rodgers, The S..."
INDEX 01 00:00:00
FILE "08.Meshell Ndegeocello & Yerba Buena (Featuring Ron Blake)-Gentleman.wav" WAVE
TRACK 08 AUDIO
TITLE "Gentleman"
PERFORMER "Meshell Ndegeocello & Yerba Buena (Featuring Ron Blake)"
INDEX 01 00:00:00
FILE "09.Common, Meshell Ndegeocello & Djelimady Tounkara-Tears & Sorrow.wav" WAVE
TRACK 09 AUDIO
TITLE "Tears & Sorrow"
PERFORMER "Common, Meshell Ndegeocello & Djelimady Tounkara"
INDEX 01 00:00:00
FILE "10.Cheikh Lo-Shakara-Lady (Part One).wav" WAVE
TRACK 10 AUDIO
TITLE "Shakara-Lady (Part One)"
PERFORMER "Cheikh Lo"
INDEX 01 00:00:00
FILE "11.Cheikh Lo, Les Nubians & Manu Dibango (Featuring Chateau Flight)-Shakara-Lady (Part Two).wav" WAVE
TRACK 11 AUDIO
TITLE "Shakara-Lady (Part Two)"
PERFORMER "Cheikh Lo, Les Nubians & Manu Dibango (Featuring Chateau Flight)"
INDEX 01 00:00:00
FILE "12.Monoaural-Don't Worry About My Mouth-o (Interlude).wav" WAVE
TRACK 12 AUDIO
TITLE "Don't Worry About My Mouth-o (Interlude)"
PERFORMER "Monoaural"
INDEX 01 00:00:00
FILE "13.Bugz In The Attic (Featuring Wunmi)-Zombie (Part One).wav" WAVE
TRACK 13 AUDIO
TITLE "Zombie (Part One)"
PERFORMER "Bugz In The Attic (Featuring Wunmi)"
INDEX 01 00:00:00
FILE "14.Instrumental (Featuring Nile Rodgers, Roy Hargrove & Money Mark)-Zombie (Part Two).wav" WAVE
TRACK 14 AUDIO
TITLE "Zombie (Part Two)"
PERFORMER "Instrumental (Featuring Nile Rodgers, Roy Hargrove & Money Mark)"
INDEX 01 00:00:00
FILE "15.Tony Allen, Res, Ray Lema, Baaba Maal, Postive Black Soul & Archie Shepp-No Agreement.wav" WAVE
TRACK 15 AUDIO
TITLE "No Agreement"
PERFORMER "Tony Allen, Res, Ray Lema, Baaba Maal, Postive Black Soul & Archie Shepp"
INDEX 01 00:00:00
FILE "16.Kelis-So Be It.wav" WAVE
TRACK 16 AUDIO
TITLE "So Be It"
PERFORMER "Kelis"
INDEX 01 00:00:00
FILE "17.Monoaural-This Is An Ashanti Proverb (Interlude).wav" WAVE
TRACK 17 AUDIO
TITLE "This Is An Ashanti Proverb (Interlude)"
PERFORMER "Monoaural"
INDEX 01 00:00:00
FILE "18.Sade-By Your Side (Cottonbelly's Fola Mix Edit).wav" WAVE
TRACK 18 AUDIO
TITLE "By Your Side (Cottonbelly's Fola Mix Edit)"
PERFORMER "Sade"
INDEX 01 00:00:00
FILE "19.Yerba Buena & Lenine-Colonial Mentality.wav" WAVE
TRACK 19 AUDIO
TITLE "Colonial Mentality"
PERFORMER "Yerba Buena & Lenine"
INDEX 01 00:00:00
FILE "20.Baaba Maal & Taj Mahal (Featuring Kaouding Cissoko & Antibalas)-Trouble Sleep Yanga Wake Am.wav" WAVE
TRACK 20 AUDIO
TITLE "Trouble Sleep Yanga Wake Am"
PERFORMER "Baaba Maal & Taj Mahal (Featuring Kaouding Cissoko & Antibalas)"
INDEX 01 00:00:00
Приватный:
Нет (DHT включён)
Размер:
480.44 Мб (503,778,910 байт) » файлов: 24
Участники:
0 раздают, 0 качают (0 участников всего)
Внешние участники:
1 раздают, 0 качают (1 участников всего) [ Обновить ]
Никого нет на раздаче - пишите личное сообщение M0p94ok
No seeders - write personal message to M0p94ok
03:41
35
Нет комментариев. Ваш будет первым!