Поиск

(Funk / Soul) VA - What It Is! Funky Soul and Rare Grooves 1967-1977 - 2006, FLAC (tracks+.cue), lossless

(Funk / Soul) VA - What It Is! Funky Soul and Rare Grooves 1967-1977 - 2006, FLAC (tracks+.cue), lossless
Треклист:
Various Artists - What It Is! Funky Soul and Rare Grooves 1967-1977
Жанр: Funk / Soul
Год выпуска диска: 2006
Производитель диска: UK
Аудио кодек: FLAC
Тип рипа: tracks+.cue
Битрейт аудио: lossless
Продолжительность: 5:07:05
Источник: Вата
Трэклист:
Disc 01
01 The Watts 103rd St. Rhythm Band - Spreadin' Honey 2:26
02 Bar-Kays - Soul Finger 2:21
03 Brother Jack McDuff - The Shadow Of Your Smile 3:55
04 Jimmy Norman - Gangster Of Love (Parts I & II) 4:10
05 Rufus Thomas - The Memphis Train 2:34
06 Grassella Oliphant - Get Out Of My Life Woman 2:45
07 Eddie Harris - Live Right Now 2:49
08 Natural Bridge Bunch - Pig Snootss, Part I 2:36
09 The Freedom Sounds Feat. Wayne Henderson - Soul Sound System 5:34
10 Clarence Carter - Snatching It Back 2:41
11 Artie Christopher - Stoned Soul 1:56
12 The T.S.U. Toronadoes - Getting The Corners 2:27
13 Tony Alvon & The Belairs - Sexy Coffee Pot 2:29
14 Mark Putney - Don't Come Around Here Anymore 2:44
15 The Commodores - Keep On Dancing 2:39
16 The Southshore Commission - Right On Brother - Part I 2:40
17 Eldridge Holmes - Pop, Popcorn Children 2:54
18 Cold Grits - It's Your Thing 2:53
19 Soul Angels - It's All In Your Mind 2:50
20 Johnny Cameron & The Camerons - Funky John 2:49
21 Joyce Jones - Help Me Make Up My Mind 2:46
22 Lou Johnson - Rock Me Baby 2:16
23 The Noble Knights - Sing A Simple Song 2:57
24 Titus Turner - Do You Dig It 2:13
25 Phil Moore, Jr. - Funky Canyon 2:39
26 The Fabulous Counts - Jan Jan 2:18
27 The Rhine Oaks - Tampin 3:03
...
 
...
Disc 02
01 Cyril Neville - Gossip 2:38
02 The Mighty Hannibal - Somebody In The World For You 2:56
03 Little Sister - Stanga 3:42
04 Ananda Shankar - Jumpin' Jack Flash 3:40
05 Brute Force - The Deacon 4:32
06 Don Covay & The Jefferson Lemon Blues Band - Sookie Sookie 2:44
07 Clarence Wheeler & The Enforcers - Right On 4:41
08 Curtis Mayfield - (Don't Worry) If There's A Hell Below We're All Going To Go 3:28
09 Johnny Harris - Stepping Stones 5:25
10 6ix - I'm Just Like You 3:09
11 The Unemployed - Funky Thing - Part I 3:06
12 Shirley Scott - Messie Bessie 4:20
13 Willie West - Fairchild 3:20
14 The Gaturs - Cold Bear 2:55
15 Mongo Santamaria - I Can't Get Next To You 2:44
16 Lulu - Feelin' Alright 3:03
17 Memphis Horns - Soul Bowl 3:22
18 Hammer - Tuane 3:08
19 Johnny Tolbert & De Thangs - Take It Off - Part II 3:18
20 Harlem River Drive feat. Eddie Palmieri & Jimmy Norman - Seeds of Life 5:09
21 Wilson Pickett - Engine Number 9 2:51
Disc 03
01 Baby Huey & The Baby Sitters - Hard Times 3:21
02 Houseguests - What So Never the Dance, Pts. 1 & 2 3:59
03 Eugene McDaniels - Headless Heroes 3:34
04 Wade Marcus - Spinning Wheel 3:58
05 Earth, Wind & Fire - Bad Tune 4:43
06 Rasputin's Stash - Mr. Cool 3:34
07 Junior Mance - Don't Cha Hear Me Callin' To Ya 5:10
08 The Stovall Sisters - Hang On In There 3:16
09 The Beginning Of The End - Funky Nassau, Pt. 3 2:00
10 Mark Holder & The Positives - Whatever's Fair 2:43
11 Ed Robinson - Face It 2:25
12 Young-Holt Unlimited - Wah Wah Man 3:47
13 Aretha Franklin - Rock Steady [Alternate Mix] 4:32
14 Black Haze Express - Won't Nobody Listen 4:17
15 Allen Toussaint - Goin' Down 2:59
16 Malo - Suavecito 3:28
17 Charles Wright - You Gotta Know Whatcha Doin' 3:59
18 Tami Lynn - Mo Jo Hanna 3:26
19 King Curtis - Ridin' Thumb 3:11
20 Macondo - Almendra 3:46
21 Little Richard - Nuki Suki 5:31
Disc 04
01 United 8 - Getting Uptown (To Get Down) 2:47
02 Howard Tate - 8 Days On The Road 2:40
03 Labelle - Moon Shadow 4:25
04 Society's Bag - Let It Crawl 2:37
05 Black Heat - Wanaoh 3:54
06 Clarence Reid - If It Was Good Enough For Daddy 3:05
07 Claudia Lennear - Everything I Do Gonna Be Funky 3:47
08 The Mystic Moods - Cosmic Sea 2:38
09 Cold Blood - Kissing My Love 6:07
10 Seatrain - Flute Thing 3:24
11 The Meters - Chug Chug Chug-A-Lug (Push N' Shove) - Part II 3:29
12 Freddi, Henchi & The Soul Setters - Funky To The Bone 2:42
13 Bobby Byrd - Try It Again 3:37
14 Cornell Dupree - Teasin' 3:56
15 Dr. John - (Everybody Wanna Get Rich) Rite Away 2:44
16 Oscar Brown, Jr. - Chicken Heads 2:40
17 Funk Factory - Rien Ne Va Plus 5:19
18 Herbie Mann - Cajun Moon 3:08
19 Darrow Fletcher - Improve 2:51
20 Faze-O - Riding High 5:21
21 Fred Wesley & The Horny Horns - Four Play 3:35
22 Eddie Hazel - California Dreamin' 4:05

 
EAC LOG
Exact Audio Copy V0.99 prebeta 5 from 4. May 2009
EAC extraction logfile from 9. November 2009, 16:33
Various Artists / What It Is! Funky Soul And Rare Grooves Disc 01
Used drive : BENQ DVD DD DW1620 Adapter: 1 ID: 0
Read mode : Secure
Utilize accurate stream : Yes
Defeat audio cache : Yes
Make use of C2 pointers : No
Read offset correction : 618
Overread into Lead-In and Lead-Out : No
Fill up missing offset samples with silence : Yes
Delete leading and trailing silent blocks : No
Null samples used in CRC calculations : Yes
Used interface : Installed external ASPI interface
Gap handling : Appended to previous track
Used output format : User Defined Encoder
Selected bitrate : 320 kBit/s
Quality : High
Add ID3 tag : No
Command line compressor : C:\Programme\EAC\Flac\flac.exe
Additional command line options : -V -8 -T "artist=%a" -T "title=%t" -T "album=%g" -T "date=%y" -T "tracknumber=%n" -T "genre=%m" %s
TOC of the extracted CD
Track | Start | Length | Start sector | End sector
---------------------------------------------------------
1 | 0:00.00 | 2:25.42 | 0 | 10916
2 | 2:25.42 | 2:21.22 | 10917 | 21513
3 | 4:46.64 | 3:55.03 | 21514 | 39141
4 | 8:41.67 | 4:10.34 | 39142 | 57925
5 | 12:52.26 | 2:33.57 | 57926 | 69457
6 | 15:26.08 | 2:44.55 | 69458 | 81812
7 | 18:10.63 | 2:49.26 | 81813 | 94513
8 | 21:00.14 | 2:36.31 | 94514 | 106244
9 | 23:36.45 | 5:34.21 | 106245 | 131315
10 | 29:10.66 | 2:41.22 | 131316 | 143412
11 | 31:52.13 | 1:56.04 | 143413 | 152116
12 | 33:48.17 | 2:27.35 | 152117 | 163176
13 | 36:15.52 | 2:28.59 | 163177 | 174335
14 | 38:44.36 | 2:44.01 | 174336 | 186636
15 | 41:28.37 | 2:39.04 | 186637 | 198565
16 | 44:07.41 | 2:40.06 | 198566 | 210571
17 | 46:47.47 | 2:53.49 | 210572 | 223595
18 | 49:41.21 | 2:52.52 | 223596 | 236547
19 | 52:33.73 | 2:49.62 | 236548 | 249284
20 | 55:23.60 | 2:48.61 | 249285 | 261945
21 | 58:12.46 | 2:45.60 | 261946 | 274380
22 | 60:58.31 | 2:15.46 | 274381 | 284551
23 | 63:14.02 | 2:57.26 | 284552 | 297852
24 | 66:11.28 | 2:13.31 | 297853 | 307858
25 | 68:24.59 | 2:38.41 | 307859 | 319749
26 | 71:03.25 | 2:17.40 | 319750 | 330064
27 | 73:20.65 | 3:02.59 | 330065 | 343773
Track 1
Filename E:\VA - 2006 - What It Is! Funky Soul And Rare Grooves Disc 01\01 - The Watts 103rd St. Rhythm Band - Spreadin' Honey.wav
Pre-gap length 0:00:02.00
Peak level 99.8 %
Track quality 100.0 %
Test CRC 65FE3806
Copy CRC 65FE3806
Accurately ripped (confidence 30) [E33FD573]
Copy OK
Track 2
Filename E:\VA - 2006 - What It Is! Funky Soul And Rare Grooves Disc 01\02 - Bar-Kays - Soul Finger.wav
Pre-gap length 0:00:01.16
Peak level 99.8 %
Track quality 100.0 %
Test CRC 90265EC0
Copy CRC 90265EC0
Accurately ripped (confidence 30) [83191134]
Copy OK
Track 3
Filename E:\VA - 2006 - What It Is! Funky Soul And Rare Grooves Disc 01\03 - Brother Jack Mcduff - The Shadow Of Your Smile.wav
Peak level 99.8 %
Track quality 100.0 %
Test CRC 6B63E6E3
Copy CRC 6B63E6E3
Accurately ripped (confidence 30) [B3822581]
Copy OK
Track 4
Filename E:\VA - 2006 - What It Is! Funky Soul And Rare Grooves Disc 01\04 - Jimmy Norman - Gangster Of Love (Parts I & Ii).wav
Peak level 99.5 %
Track quality 100.0 %
Test CRC B00BDB7F
Copy CRC B00BDB7F
Accurately ripped (confidence 30) [C5BD1934]
Copy OK
Track 5
Filename E:\VA - 2006 - What It Is! Funky Soul And Rare Grooves Disc 01\05 - Rufus Thomas - The Memphis Train.wav
Pre-gap length 0:00:01.12
Peak level 99.8 %
Track quality 99.9 %
Test CRC FD242F3E
Copy CRC FD242F3E
Accurately ripped (confidence 30) [FB36E82A]
Copy OK
Track 6
Filename E:\VA - 2006 - What It Is! Funky Soul And Rare Grooves Disc 01\06 - Grassella Oliphant - Get Out Of My Wife Woman.wav
Peak level 99.8 %
Track quality 100.0 %
Test CRC A128B7FF
Copy CRC A128B7FF
Accurately ripped (confidence 30) [CE15F8E0]
Copy OK
Track 7
Filename E:\VA - 2006 - What It Is! Funky Soul And Rare Grooves Disc 01\07 - Eddie Harris - Live Right Now.wav
Pre-gap length 0:00:02.64
Peak level 97.1 %
Track quality 99.9 %
Test CRC B4686363
Copy CRC B4686363
Accurately ripped (confidence 30) [F754DC8F]
Copy OK
Track 8
Filename E:\VA - 2006 - What It Is! Funky Soul And Rare Grooves Disc 01\08 - Natural Bridge Bunch - Pig Snoots, Part I.wav
Peak level 99.8 %
Track quality 99.9 %
Test CRC 13DAC43D
Copy CRC 13DAC43D
Accurately ripped (confidence 30) [1BEAD5CA]
Copy OK
Track 9
Filename E:\VA - 2006 - What It Is! Funky Soul And Rare Grooves Disc 01\09 - The Freedom Sounds Feat. Wayne Henderson - Soul Sound System.wav
Pre-gap length 0:00:02.04
Peak level 96.4 %
Track quality 100.0 %
Test CRC 906C442A
Copy CRC 906C442A
Accurately ripped (confidence 29) [963E70FD]
Copy OK
Track 10
Filename E:\VA - 2006 - What It Is! Funky Soul And Rare Grooves Disc 01\10 - Clarence Carter - Snatching It Back.wav
Pre-gap length 0:00:01.49
Peak level 96.1 %
Track quality 100.0 %
Test CRC A5954A50
Copy CRC A5954A50
Accurately ripped (confidence 30) [D57F6451]
Copy OK
Track 11
Filename E:\VA - 2006 - What It Is! Funky Soul And Rare Grooves Disc 01\11 - Artie Christopher - Stoned Soul.wav
Pre-gap length 0:00:01.00
Peak level 97.6 %
Track quality 100.0 %
Test CRC 048A3860
Copy CRC 048A3860
Accurately ripped (confidence 30) [E63C3034]
Copy OK
Track 12
Filename E:\VA - 2006 - What It Is! Funky Soul And Rare Grooves Disc 01\12 - The T.S.U. Toronadoes - Getting The Corners.wav
Peak level 99.8 %
Track quality 100.0 %
Test CRC 9676E73C
Copy CRC 9676E73C
Accurately ripped (confidence 30) [D3DE1387]
Copy OK
Track 13
Filename E:\VA - 2006 - What It Is! Funky Soul And Rare Grooves Disc 01\13 - Tony Alvon & The Belairs - Sexy Coffee Pot.wav
Peak level 85.0 %
Track quality 100.0 %
Test CRC 93C9A353
Copy CRC 93C9A353
Accurately ripped (confidence 30) [8DA56984]
Copy OK
Track 14
Filename E:\VA - 2006 - What It Is! Funky Soul And Rare Grooves Disc 01\14 - Mark Putney - Don't Come Around Here Anymore.wav
Pre-gap length 0:00:01.08
Peak level 94.2 %
Track quality 99.9 %
Test CRC 9A2DE15A
Copy CRC 9A2DE15A
Accurately ripped (confidence 30) [B7A2509F]
Copy OK
Track 15
Filename E:\VA - 2006 - What It Is! Funky Soul And Rare Grooves Disc 01\15 - The Commodores - Keep On Dancing.wav
Pre-gap length 0:00:01.82
Peak level 95.0 %
Track quality 99.9 %
Test CRC 8DEADA14
Copy CRC 8DEADA14
Accurately ripped (confidence 30) [5F4C42E0]
Copy OK
Track 16
Filename E:\VA - 2006 - What It Is! Funky Soul And Rare Grooves Disc 01\16 - The Southshore Commission - Right On Brother - Part I.wav
Pre-gap length 0:00:01.04
Peak level 95.4 %
Track quality 99.9 %
Test CRC 3F906D82
Copy CRC 3F906D82
Accurately ripped (confidence 30) [A653A808]
Copy OK
Track 17
Filename E:\VA - 2006 - What It Is! Funky Soul And Rare Grooves Disc 01\17 - Eldridge Holmes - Pop, Popcorn Children.wav
Pre-gap length 0:00:01.61
Peak level 97.9 %
Track quality 99.9 %
Test CRC C218E1A9
Copy CRC C218E1A9
Accurately ripped (confidence 30) [5D494585]
Copy OK
Track 18
Filename E:\VA - 2006 - What It Is! Funky Soul And Rare Grooves Disc 01\18 - Cold Grits - It's Your Thing.wav
Peak level 96.4 %
Track quality 99.9 %
Test CRC 7887253D
Copy CRC 7887253D
Accurately ripped (confidence 29) [76C06EB4]
Copy OK
Track 19
Filename E:\VA - 2006 - What It Is! Funky Soul And Rare Grooves Disc 01\19 - Soul Angels - It's All In Your Mind.wav
Peak level 99.8 %
Track quality 100.0 %
Test CRC 7AFBF56E
Copy CRC 7AFBF56E
Accurately ripped (confidence 29) [9465F520]
Copy OK
Track 20
Filename E:\VA - 2006 - What It Is! Funky Soul And Rare Grooves Disc 01\20 - Johnny Cameron & The Camerons - Funky John.wav
Pre-gap length 0:00:01.49
Peak level 99.8 %
Track quality 100.0 %
Test CRC E01F62EA
Copy CRC E01F62EA
Accurately ripped (confidence 30) [B969038A]
Copy OK
Track 21
Filename E:\VA - 2006 - What It Is! Funky Soul And Rare Grooves Disc 01\21 - Joyce Jones - Help Me Make Up My Mind.wav
Pre-gap length 0:00:02.22
Peak level 99.8 %
Track quality 100.0 %
Test CRC 8F100E4D
Copy CRC 8F100E4D
Accurately ripped (confidence 30) [B6C26549]
Copy OK
Track 22
Filename E:\VA - 2006 - What It Is! Funky Soul And Rare Grooves Disc 01\22 - Lou Johnson - Rock Me Baby.wav
Pre-gap length 0:00:01.08
Peak level 96.5 %
Track quality 100.0 %
Test CRC 336CD5CA
Copy CRC 336CD5CA
Accurately ripped (confidence 29) [9B6B43CD]
Copy OK
Track 23
Filename E:\VA - 2006 - What It Is! Funky Soul And Rare Grooves Disc 01\23 - The Noble Knights - Sing A Simple Song.wav
Pre-gap length 0:00:01.92
Peak level 99.8 %
Track quality 100.0 %
Test CRC B0CFD8E3
Copy CRC B0CFD8E3
Accurately ripped (confidence 30) [4C56DF31]
Copy OK
Track 24
Filename E:\VA - 2006 - What It Is! Funky Soul And Rare Grooves Disc 01\24 - Titus Turner - Do You Dig It.wav
Pre-gap length 0:00:01.10
Peak level 92.0 %
Track quality 100.0 %
Test CRC 70964346
Copy CRC 70964346
Accurately ripped (confidence 30) [1A901E75]
Copy OK
Track 25
Filename E:\VA - 2006 - What It Is! Funky Soul And Rare Grooves Disc 01\25 - Phil Moore, Jr. - Funky Canyon.wav
Pre-gap length 0:00:01.98
Peak level 94.9 %
Track quality 100.0 %
Test CRC 6F106546
Copy CRC 6F106546
Accurately ripped (confidence 30) [5DDD66D1]
Copy OK
Track 26
Filename E:\VA - 2006 - What It Is! Funky Soul And Rare Grooves Disc 01\26 - The Fabulous Counts - Jan Jan.wav
Pre-gap length 0:00:01.40
Peak level 92.6 %
Track quality 100.0 %
Test CRC CBE6B9BB
Copy CRC CBE6B9BB
Accurately ripped (confidence 30) [CD3A0339]
Copy OK
Track 27
Filename E:\VA - 2006 - What It Is! Funky Soul And Rare Grooves Disc 01\27 - The Rhine Oaks - Tampin.wav
Pre-gap length 0:00:01.50
Peak level 99.8 %
Track quality 100.0 %
Test CRC C26B6FED
Copy CRC C26B6FED
Accurately ripped (confidence 28) [E6B2CCC5]
Copy OK
All tracks accurately ripped
No errors occurred
End of status report
Exact Audio Copy V0.99 prebeta 5 from 4. May 2009
EAC extraction logfile from 9. November 2009, 17:01
Various / What It Is! Funky Soul and Rare Grooves Disc 02
Used drive : BENQ DVD DD DW1620 Adapter: 1 ID: 0
Read mode : Secure
Utilize accurate stream : Yes
Defeat audio cache : Yes
Make use of C2 pointers : No
Read offset correction : 618
Overread into Lead-In and Lead-Out : No
Fill up missing offset samples with silence : Yes
Delete leading and trailing silent blocks : No
Null samples used in CRC calculations : Yes
Used interface : Installed external ASPI interface
Gap handling : Appended to previous track
Used output format : User Defined Encoder
Selected bitrate : 320 kBit/s
Quality : High
Add ID3 tag : No
Command line compressor : C:\Programme\EAC\Flac\flac.exe
Additional command line options : -V -8 -T "artist=%a" -T "title=%t" -T "album=%g" -T "date=%y" -T "tracknumber=%n" -T "genre=%m" %s
TOC of the extracted CD
Track | Start | Length | Start sector | End sector
---------------------------------------------------------
1 | 0:00.00 | 2:38.09 | 0 | 11858
2 | 2:38.09 | 2:55.43 | 11859 | 25026
3 | 5:33.52 | 3:42.00 | 25027 | 41676
4 | 9:15.52 | 3:40.19 | 41677 | 58195
5 | 12:55.71 | 4:32.05 | 58196 | 78600
6 | 17:28.01 | 2:44.27 | 78601 | 90927
7 | 20:12.28 | 4:41.12 | 90928 | 112014
8 | 24:53.40 | 3:28.18 | 112015 | 127632
9 | 28:21.58 | 5:24.46 | 127633 | 151978
10 | 33:46.29 | 3:08.61 | 151979 | 166139
11 | 36:55.15 | 3:06.32 | 166140 | 180121
12 | 40:01.47 | 4:19.61 | 180122 | 199607
13 | 44:21.33 | 3:20.18 | 199608 | 214625
14 | 47:41.51 | 2:55.25 | 214626 | 227775
15 | 50:37.01 | 2:44.12 | 227776 | 240087
16 | 53:21.13 | 3:02.53 | 240088 | 253790
17 | 56:23.66 | 3:21.40 | 253791 | 268905
18 | 59:45.31 | 3:07.63 | 268906 | 282993
19 | 62:53.19 | 3:17.47 | 282994 | 297815
20 | 66:10.66 | 5:09.05 | 297816 | 320995
21 | 71:19.71 | 2:50.52 | 320996 | 333797
Track 1
Filename E:\VA - 2006 - What It Is! Funky Soul and Rare Grooves Disc 02\01 - Cyril Neville - Gossip.wav
Pre-gap length 0:00:02.00
Peak level 97.4 %
Track quality 100.0 %
Test CRC E7AE23A9
Copy CRC E7AE23A9
Accurately ripped (confidence 29) [72D76195]
Copy OK
Track 2
Filename E:\VA - 2006 - What It Is! Funky Soul and Rare Grooves Disc 02\02 - The Mighty Hannibal - Somebody In The World For You.wav
Pre-gap length 0:00:01.42
Peak level 99.8 %
Track quality 100.0 %
Test CRC 2FEA3103
Copy CRC 2FEA3103
Accurately ripped (confidence 29) [8986EF8C]
Copy OK
Track 3
Filename E:\VA - 2006 - What It Is! Funky Soul and Rare Grooves Disc 02\03 - Little Sister - Stanga.wav
Pre-gap length 0:00:01.37
Peak level 95.3 %
Track quality 100.0 %
Test CRC E6FFD016
Copy CRC E6FFD016
Accurately ripped (confidence 29) [75E36AA2]
Copy OK
Track 4
Filename E:\VA - 2006 - What It Is! Funky Soul and Rare Grooves Disc 02\04 - Ananda Shankar - Jumpin' Jack Flash.wav
Pre-gap length 0:00:01.42
Peak level 86.7 %
Track quality 100.0 %
Test CRC 434B2006
Copy CRC 434B2006
Accurately ripped (confidence 29) [A86525BA]
Copy OK
Track 5
Filename E:\VA - 2006 - What It Is! Funky Soul and Rare Grooves Disc 02\05 - Brute Force - The Deacon.wav
Peak level 96.8 %
Track quality 100.0 %
Test CRC 0E0381B2
Copy CRC 0E0381B2
Accurately ripped (confidence 29) [EBA3A269]
Copy OK
Track 6
Filename E:\VA - 2006 - What It Is! Funky Soul and Rare Grooves Disc 02\06 - Don Covay & The Jefferson Lemon Blues Band - Sookie Sookie.wav
Pre-gap length 0:00:01.44
Peak level 94.2 %
Track quality 99.9 %
Test CRC 4742DAF7
Copy CRC 4742DAF7
Accurately ripped (confidence 29) [BDF33AF3]
Copy OK
Track 7
Filename E:\VA - 2006 - What It Is! Funky Soul and Rare Grooves Disc 02\07 - Clarence Wheeler & The Enforcers - Right On.wav
Peak level 99.8 %
Track quality 100.0 %
Test CRC 9B167934
Copy CRC 9B167934
Accurately ripped (confidence 28) [0A8C8D75]
Copy OK
Track 8
Filename E:\VA - 2006 - What It Is! Funky Soul and Rare Grooves Disc 02\08 - Curtis Mayfield - (Don't Worry) If There's A Hell Below We're All Going To Go.wav
Pre-gap length 0:00:01.84
Peak level 94.2 %
Track quality 100.0 %
Test CRC 166AB449
Copy CRC 166AB449
Accurately ripped (confidence 28) [1997E0C2]
Copy OK
Track 9
Filename E:\VA - 2006 - What It Is! Funky Soul and Rare Grooves Disc 02\09 - Johnny Harris - Stepping Stones.wav
Peak level 99.8 %
Track quality 100.0 %
Test CRC 62B5CDCD
Copy CRC 62B5CDCD
Accurately ripped (confidence 29) [27E36C0D]
Copy OK
Track 10
Filename E:\VA - 2006 - What It Is! Funky Soul and Rare Grooves Disc 02\10 - 6ix - I'm Just Like You.wav
Pre-gap length 0:00:01.90
Peak level 99.8 %
Track quality 100.0 %
Test CRC A09CD23D
Copy CRC A09CD23D
Accurately ripped (confidence 29) [84C754E2]
Copy OK
Track 11
Filename E:\VA - 2006 - What It Is! Funky Soul and Rare Grooves Disc 02\11 - The Unemployed - Funky Thing - Part I.wav
Peak level 94.2 %
Track quality 100.0 %
Test CRC C87785DA
Copy CRC C87785DA
Accurately ripped (confidence 29) [DA50C153]
Copy OK
Track 12
Filename E:\VA - 2006 - What It Is! Funky Soul and Rare Grooves Disc 02\12 - Shirley Scott - Messie Bessie.wav
Pre-gap length 0:00:01.18
Peak level 94.2 %
Track quality 100.0 %
Test CRC E22C6289
Copy CRC E22C6289
Accurately ripped (confidence 29) [ED0F2EB7]
Copy OK
Track 13
Filename E:\VA - 2006 - What It Is! Funky Soul and Rare Grooves Disc 02\13 - Willie West - Fairchild.wav
Pre-gap length 0:00:01.30
Peak level 99.8 %
Track quality 99.9 %
Test CRC 2D9A41CB
Copy CRC 2D9A41CB
Accurately ripped (confidence 28) [5F7CA7CA]
Copy OK
Track 14
Filename E:\VA - 2006 - What It Is! Funky Soul and Rare Grooves Disc 02\14 - The Gaturs - Cold Bear.wav
Peak level 99.8 %
Track quality 99.9 %
Test CRC BB14D329
Copy CRC BB14D329
Accurately ripped (confidence 29) [714254C1]
Copy OK
Track 15
Filename E:\VA - 2006 - What It Is! Funky Soul and Rare Grooves Disc 02\15 - Mongo Santamaria - I Can't Get Next To You.wav
Peak level 99.8 %
Track quality 100.0 %
Test CRC C31A24B3
Copy CRC C31A24B3
Accurately ripped (confidence 29) [65FF7E65]
Copy OK
Track 16
Filename E:\VA - 2006 - What It Is! Funky Soul and Rare Grooves Disc 02\16 - Lulu - Feelin' Alright.wav
Pre-gap length 0:00:01.30
Peak level 99.8 %
Track quality 100.0 %
Test CRC C08A98CC
Copy CRC C08A98CC
Accurately ripped (confidence 29) [78E15CAA]
Copy OK
Track 17
Filename E:\VA - 2006 - What It Is! Funky Soul and Rare Grooves Disc 02\17 - Memphis Horns - Soul Bowl.wav
Pre-gap length 0:00:02.41
Peak level 99.8 %
Track quality 100.0 %
Test CRC E7BF55DD
Copy CRC E7BF55DD
Accurately ripped (confidence 29) [8BBAA052]
Copy OK
Track 18
Filename E:\VA - 2006 - What It Is! Funky Soul and Rare Grooves Disc 02\18 - Hammer - Tuane.wav
Pre-gap length 0:00:01.01
Peak level 99.8 %
Track quality 100.0 %
Test CRC 014BAD98
Copy CRC 014BAD98
Accurately ripped (confidence 28) [CA520046]
Copy OK
Track 19
Filename E:\VA - 2006 - What It Is! Funky Soul and Rare Grooves Disc 02\19 - Johnny Talbert & De Thangs - Take It Off - Part II.wav
Pre-gap length 0:00:01.26
Peak level 94.2 %
Track quality 100.0 %
Test CRC 8194E42B
Copy CRC 8194E42B
Accurately ripped (confidence 28) [00DFCD72]
Copy OK
Track 20
Filename E:\VA - 2006 - What It Is! Funky Soul and Rare Grooves Disc 02\20 - Harlem River Drive feat. Eddie Palmieri & Jimmy Norman - Seeds of Life.wav
Pre-gap length 0:00:01.86
Peak level 99.8 %
Track quality 100.0 %
Test CRC 2EDD79A5
Copy CRC 2EDD79A5
Accurately ripped (confidence 29) [F1A3BAAE]
Copy OK
Track 21
Filename E:\VA - 2006 - What It Is! Funky Soul and Rare Grooves Disc 02\21 - Wilson Pickett - Engine Number 9.wav
Peak level 99.8 %
Track quality 99.9 %
Test CRC 610009EB
Copy CRC 610009EB
Accurately ripped (confidence 27) [93328B80]
Copy OK
All tracks accurately ripped
No errors occurred
End of status report
Exact Audio Copy V0.99 prebeta 5 from 4. May 2009
EAC extraction logfile from 9. November 2009, 17:32
Various / What It Is! Funky Soul and Rare Grooves Disc 03
Used drive : BENQ DVD DD DW1620 Adapter: 1 ID: 0
Read mode : Secure
Utilize accurate stream : Yes
Defeat audio cache : Yes
Make use of C2 pointers : No
Read offset correction : 618
Overread into Lead-In and Lead-Out : No
Fill up missing offset samples with silence : Yes
Delete leading and trailing silent blocks : No
Null samples used in CRC calculations : Yes
Used interface : Installed external ASPI interface
Gap handling : Appended to previous track
Used output format : User Defined Encoder
Selected bitrate : 320 kBit/s
Quality : High
Add ID3 tag : No
Command line compressor : C:\Programme\EAC\Flac\flac.exe
Additional command line options : -V -8 -T "artist=%a" -T "title=%t" -T "album=%g" -T "date=%y" -T "tracknumber=%n" -T "genre=%m" %s
TOC of the extracted CD
Track | Start | Length | Start sector | End sector
---------------------------------------------------------
1 | 0:00.00 | 3:21.02 | 0 | 15076
2 | 3:21.02 | 3:59.35 | 15077 | 33036
3 | 7:20.37 | 3:34.23 | 33037 | 49109
4 | 10:54.60 | 3:58.10 | 49110 | 66969
5 | 14:52.70 | 4:42.47 | 66970 | 88166
6 | 19:35.42 | 3:34.35 | 88167 | 104251
7 | 23:10.02 | 5:09.64 | 104252 | 127490
8 | 28:19.66 | 3:16.30 | 127491 | 142220
9 | 31:36.21 | 2:00.01 | 142221 | 151221
10 | 33:36.22 | 2:42.57 | 151222 | 163428
11 | 36:19.04 | 2:25.36 | 163429 | 174339
12 | 38:44.40 | 3:47.29 | 174340 | 191393
13 | 42:31.69 | 4:32.01 | 191394 | 211794
14 | 47:03.70 | 4:17.27 | 211795 | 231096
15 | 51:21.22 | 2:59.06 | 231097 | 244527
16 | 54:20.28 | 3:27.72 | 244528 | 260124
17 | 57:48.25 | 3:58.55 | 260125 | 278029
18 | 61:47.05 | 3:26.24 | 278030 | 293503
19 | 65:13.29 | 3:10.58 | 293504 | 307811
20 | 68:24.12 | 3:46.13 | 307812 | 324774
21 | 72:10.25 | 5:30.39 | 324775 | 349563
Track 1
Filename E:\VA - 2006 - What It Is! Funky Soul and Rare Grooves Disc 03\01 - Baby Huey & The Baby Sitters - Hard Times.wav
Pre-gap length 0:00:02.00
Peak level 93.7 %
Track quality 100.0 %
Test CRC 521A8C49
Copy CRC 521A8C49
Accurately ripped (confidence 28) [23F96593]
Copy OK
Track 2
Filename E:\VA - 2006 - What It Is! Funky Soul and Rare Grooves Disc 03\02 - Houseguests - What So Never the Dance, Pts. 1 & 2.wav
Pre-gap length 0:00:01.10
Peak level 93.9 %
Track quality 100.0 %
Test CRC 83C13E2F
Copy CRC 83C13E2F
Accurately ripped (confidence 28) [E38D74D7]
Copy OK
Track 3
Filename E:\VA - 2006 - What It Is! Funky Soul and Rare Grooves Disc 03\03 - Eugene McDaniels - Headless Heroes.wav
Peak level 99.8 %
Track quality 100.0 %
Test CRC 843CF073
Copy CRC 843CF073
Accurately ripped (confidence 28) [9D52A533]
Copy OK
Track 4
Filename E:\VA - 2006 - What It Is! Funky Soul and Rare Grooves Disc 03\04 - Wade Marcus - Spinning Wheel.wav
Pre-gap length 0:00:01.61
Peak level 99.8 %
Track quality 100.0 %
Test CRC F6C7C82D
Copy CRC F6C7C82D
Accurately ripped (confidence 28) [C1F0AB80]
Copy OK
Track 5
Filename E:\VA - 2006 - What It Is! Funky Soul and Rare Grooves Disc 03\05 - Earth, Wind & Fire - Bad Tune.wav
Peak level 99.8 %
Track quality 100.0 %
Test CRC 63E53912
Copy CRC 63E53912
Accurately ripped (confidence 28) [5CADB109]
Copy OK
Track 6
Filename E:\VA - 2006 - What It Is! Funky Soul and Rare Grooves Disc 03\06 - Rasputin's Stash - Mr. Cool.wav
Peak level 99.8 %
Track quality 100.0 %
Test CRC AE9EB18E
Copy CRC AE9EB18E
Accurately ripped (confidence 28) [419794F2]
Copy OK
Track 7
Filename E:\VA - 2006 - What It Is! Funky Soul and Rare Grooves Disc 03\07 - Junior Mance - Don't Cha Hear Me Callin' to Ya.wav
Peak level 99.8 %
Track quality 100.0 %
Test CRC 7691F2EF
Copy CRC 7691F2EF
Accurately ripped (confidence 28) [AEF58F47]
Copy OK
Track 8
Filename E:\VA - 2006 - What It Is! Funky Soul and Rare Grooves Disc 03\08 - The Stovall Sisters - Hang on in There.wav
Peak level 99.8 %
Track quality 100.0 %
Test CRC 8AC9EFB0
Copy CRC 8AC9EFB0
Accurately ripped (confidence 28) [4D098867]
Copy OK
Track 9
Filename E:\VA - 2006 - What It Is! Funky Soul and Rare Grooves Disc 03\09 - The Beginning Of The End - Funky Nassau, Pt. 2.wav
Peak level 99.8 %
Track quality 100.0 %
Test CRC 5BEC25C5
Copy CRC 5BEC25C5
Accurately ripped (confidence 28) [38AC442C]
Copy OK
Track 10
Filename E:\VA - 2006 - What It Is! Funky Soul and Rare Grooves Disc 03\10 - Mark Holder & The Positives - Whatever's Fair.wav
Pre-gap length 0:00:01.42
Peak level 96.7 %
Track quality 100.0 %
Test CRC F3B63DC7
Copy CRC F3B63DC7
Accurately ripped (confidence 28) [710FA5ED]
Copy OK
Track 11
Filename E:\VA - 2006 - What It Is! Funky Soul and Rare Grooves Disc 03\11 - Ed Robinson - Face It.wav
Pre-gap length 0:00:01.05
Peak level 88.9 %
Track quality 100.0 %
Test CRC C9FA31EC
Copy CRC C9FA31EC
Accurately ripped (confidence 28) [E2A957E2]
Copy OK
Track 12
Filename E:\VA - 2006 - What It Is! Funky Soul and Rare Grooves Disc 03\12 - Young-Holt Unlimited - Wah Wah Man.wav
Peak level 99.8 %
Track quality 100.0 %
Test CRC 6758E65A
Copy CRC 6758E65A
Accurately ripped (confidence 28) [C56A937A]
Copy OK
Track 13
Filename E:\VA - 2006 - What It Is! Funky Soul and Rare Grooves Disc 03\13 - Aretha Franklin - Rock Steady [Alternate Mix][#].wav
Peak level 99.8 %
Track quality 100.0 %
Test CRC 7516E29B
Copy CRC 7516E29B
Accurately ripped (confidence 27) [D3C2BF02]
Copy OK
Track 14
Filename E:\VA - 2006 - What It Is! Funky Soul and Rare Grooves Disc 03\14 - Black Haze Express - Won't Nobody Listen.wav
Pre-gap length 0:00:01.57
Peak level 99.8 %
Track quality 99.9 %
Test CRC 3DC3EB6E
Copy CRC 3DC3EB6E
Accurately ripped (confidence 26) [DF758CE4]
Copy OK
Track 15
Filename E:\VA - 2006 - What It Is! Funky Soul and Rare Grooves Disc 03\15 - Allen Toussaint - Goin' Down.wav
Pre-gap length 0:00:01.86
Peak level 98.2 %
Track quality 100.0 %
Test CRC 84122B4A
Copy CRC 84122B4A
Accurately ripped (confidence 28) [FA167A6A]
Copy OK
Track 16
Filename E:\VA - 2006 - What It Is! Funky Soul and Rare Grooves Disc 03\16 - Malo - Suavecito.wav
Pre-gap length 0:00:02.26
Peak level 94.2 %
Track quality 100.0 %
Test CRC 3F327689
Copy CRC 3F327689
Accurately ripped (confidence 28) [31E80A49]
Copy OK
Track 17
Filename E:\VA - 2006 - What It Is! Funky Soul and Rare Grooves Disc 03\17 - Charles Wright - You Gotta Know Whatcha Doin'.wav
Peak level 88.9 %
Track quality 99.9 %
Test CRC E00FF857
Copy CRC E00FF857
Accurately ripped (confidence 29) [706195DF]
Copy OK
Track 18
Filename E:\VA - 2006 - What It Is! Funky Soul and Rare Grooves Disc 03\18 - Tami Lynn - Mo Jo Hanna.wav
Peak level 96.4 %
Track quality 100.0 %
Test CRC BA05FD1F
Copy CRC BA05FD1F
Accurately ripped (confidence 29) [801E14CF]
Copy OK
Track 19
Filename E:\VA - 2006 - What It Is! Funky Soul and Rare Grooves Disc 03\19 - King Curtis - Ridin' Thumb.wav
Pre-gap length 0:00:01.68
Peak level 95.3 %
Track quality 100.0 %
Test CRC 8166407A
Copy CRC 8166407A
Accurately ripped (confidence 29) [1B711C7C]
Copy OK
Track 20
Filename E:\VA - 2006 - What It Is! Funky Soul and Rare Grooves Disc 03\20 - Macondo - Almendra.wav
Peak level 99.8 %
Track quality 100.0 %
Test CRC 01AF91CA
Copy CRC 01AF91CA
Accurately ripped (confidence 27) [13302238]
Copy OK
Track 21
Filename E:\VA - 2006 - What It Is! Funky Soul and Rare Grooves Disc 03\21 - Little Richard - Nuki Suki.wav
Pre-gap length 0:00:01.06
Peak level 99.8 %
Track quality 100.0 %
Test CRC 267CA30B
Copy CRC 267CA30B
Accurately ripped (confidence 27) [49355A3F]
Copy OK
All tracks accurately ripped
No errors occurred
End of status report
Exact Audio Copy V0.99 prebeta 5 from 4. May 2009
EAC extraction logfile from 9. November 2009, 19:16
Various Artists / What It Is! Funky Soul And Rare Grooves Disc 04
Used drive : BENQ DVD DD DW1620 Adapter: 1 ID: 0
Read mode : Secure
Utilize accurate stream : Yes
Defeat audio cache : Yes
Make use of C2 pointers : No
Read offset correction : 618
Overread into Lead-In and Lead-Out : No
Fill up missing offset samples with silence : Yes
Delete leading and trailing silent blocks : No
Null samples used in CRC calculations : Yes
Used interface : Installed external ASPI interface
Gap handling : Appended to previous track
Used output format : User Defined Encoder
Selected bitrate : 320 kBit/s
Quality : High
Add ID3 tag : No
Command line compressor : C:\Programme\EAC\Flac\flac.exe
Additional command line options : -V -8 -T "artist=%a" -T "title=%t" -T "album=%g" -T "date=%y" -T "tracknumber=%n" -T "genre=%m" %s
TOC of the extracted CD
Track | Start | Length | Start sector | End sector
---------------------------------------------------------
1 | 0:00.00 | 2:46.72 | 0 | 12521
2 | 2:46.72 | 2:40.25 | 12522 | 24546
3 | 5:27.22 | 4:25.05 | 24547 | 44426
4 | 9:52.27 | 2:37.14 | 44427 | 56215
5 | 12:29.41 | 3:54.17 | 56216 | 73782
6 | 16:23.58 | 3:05.29 | 73783 | 87686
7 | 19:29.12 | 3:46.60 | 87687 | 104696
8 | 23:15.72 | 2:37.39 | 104697 | 116510
9 | 25:53.36 | 6:06.48 | 116511 | 144008
10 | 32:00.09 | 3:23.45 | 144009 | 159278
11 | 35:23.54 | 3:29.17 | 159279 | 174970
12 | 38:52.71 | 2:42.25 | 174971 | 187145
13 | 41:35.21 | 3:36.39 | 187146 | 203384
14 | 45:11.60 | 3:55.44 | 203385 | 221053
15 | 49:07.29 | 2:44.15 | 221054 | 233368
16 | 51:51.44 | 2:40.07 | 233369 | 245375
17 | 54:31.51 | 5:18.49 | 245376 | 269274
18 | 59:50.25 | 3:08.21 | 269275 | 283395
19 | 62:58.46 | 2:51.17 | 283396 | 296237
20 | 65:49.63 | 5:21.05 | 296238 | 320317
21 | 71:10.68 | 3:34.59 | 320318 | 336426
22 | 74:45.52 | 4:04.57 | 336427 | 354783
Track 1
Filename E:\VA - 2006 - What It Is! Funky Soul And Rare Grooves Disc 04\01 - United 8 - Getting Uptown (To Get Down).wav
Pre-gap length 0:00:02.00
Peak level 99.4 %
Track quality 100.0 %
Test CRC 4499E4AA
Copy CRC 4499E4AA
Accurately ripped (confidence 29) [9C3436A6]
Copy OK
Track 2
Filename E:\VA - 2006 - What It Is! Funky Soul And Rare Grooves Disc 04\02 - Howard Tate - 8 Days On The Road.wav
Peak level 97.8 %
Track quality 100.0 %
Test CRC C47E88E4
Copy CRC C47E88E4
Accurately ripped (confidence 29) [7F7A9D1C]
Copy OK
Track 3
Filename E:\VA - 2006 - What It Is! Funky Soul And Rare Grooves Disc 04\03 - Labelle - Moon Shadow.wav
Peak level 99.8 %
Track quality 100.0 %
Test CRC 52B90FA1
Copy CRC 52B90FA1
Accurately ripped (confidence 29) [A31A9957]
Copy OK
Track 4
Filename E:\VA - 2006 - What It Is! Funky Soul And Rare Grooves Disc 04\04 - Society's Bag - Let It Crawl.wav
Peak level 92.3 %
Track quality 100.0 %
Test CRC BEE1BA0A
Copy CRC BEE1BA0A
Accurately ripped (confidence 29) [D4A31BD8]
Copy OK
Track 5
Filename E:\VA - 2006 - What It Is! Funky Soul And Rare Grooves Disc 04\05 - Black Heat - Wanaoh.wav
Peak level 98.0 %
Track quality 100.0 %
Test CRC 964AB4C2
Copy CRC 964AB4C2
Accurately ripped (confidence 29) [E9377E3B]
Copy OK
Track 6
Filename E:\VA - 2006 - What It Is! Funky Soul And Rare Grooves Disc 04\06 - Clarence Reid - If It Was Good Enough For Daddy.wav
Pre-gap length 0:00:02.01
Peak level 94.6 %
Track quality 100.0 %
Test CRC CE770307
Copy CRC CE770307
Accurately ripped (confidence 29) [F370ECB1]
Copy OK
Track 7
Filename E:\VA - 2006 - What It Is! Funky Soul And Rare Grooves Disc 04\07 - Claudia Lennear - Everything I Do Gonna Be Funky.wav
Pre-gap length 0:00:01.56
Peak level 96.4 %
Track quality 99.9 %
Test CRC D8A7274C
Copy CRC D8A7274C
Accurately ripped (confidence 29) [FD0E8CFF]
Copy OK
Track 8
Filename E:\VA - 2006 - What It Is! Funky Soul And Rare Grooves Disc 04\08 - The Mystic Moods - Cosmic Sea.wav
Pre-gap length 0:00:04.08
Peak level 99.8 %
Track quality 100.0 %
Test CRC DB8C64AB
Copy CRC DB8C64AB
Accurately ripped (confidence 29) [F1746E15]
Copy OK
Track 9
Filename E:\VA - 2006 - What It Is! Funky Soul And Rare Grooves Disc 04\09 - Cold Blood - Kissing My Love.wav
Peak level 96.8 %
Track quality 100.0 %
Test CRC 52719F96
Copy CRC 52719F96
Accurately ripped (confidence 29) [6EE6B9DE]
Copy OK
Track 10
Filename E:\VA - 2006 - What It Is! Funky Soul And Rare Grooves Disc 04\10 - Seatrain - Flute Thing.wav
Pre-gap length 0:00:01.76
Peak level 99.8 %
Track quality 100.0 %
Test CRC 99CE717A
Copy CRC 99CE717A
Accurately ripped (confidence 29) [0D098BCC]
Copy OK
Track 11
Filename E:\VA - 2006 - What It Is! Funky Soul And Rare Grooves Disc 04\11 - The Meters - Chug Chug Chug-A-Lug (Push N' Shove) Part Ii.wav
Peak level 99.8 %
Track quality 100.0 %
Test CRC 6938D8B6
Copy CRC 6938D8B6
Accurately ripped (confidence 29) [FDECCB26]
Copy OK
Track 12
Filename E:\VA - 2006 - What It Is! Funky Soul And Rare Grooves Disc 04\12 - Freddi, Henchi & The Soul Setters - Funky To The Bone.wav
Peak level 99.2 %
Track quality 100.0 %
Test CRC EDCB5F1F
Copy CRC EDCB5F1F
Accurately ripped (confidence 29) [E6929ED6]
Copy OK
Track 13
Filename E:\VA - 2006 - What It Is! Funky Soul And Rare Grooves Disc 04\13 - Bobby Byrd - Try It Again.wav
Pre-gap length 0:00:01.08
Peak level 89.3 %
Track quality 99.9 %
Test CRC 8D5BEC31
Copy CRC 8D5BEC31
Accurately ripped (confidence 29) [87E5D13D]
Copy OK
Track 14
Filename E:\VA - 2006 - What It Is! Funky Soul And Rare Grooves Disc 04\14 - Cornell Dupree - Teasin'.wav
Peak level 89.7 %
Track quality 100.0 %
Test CRC E3FF867F
Copy CRC E3FF867F
Accurately ripped (confidence 29) [71C3E082]
Copy OK
Track 15
Filename E:\VA - 2006 - What It Is! Funky Soul And Rare Grooves Disc 04\15 - Dr.John - (Everybody Wanna Get Rich) Rite Away.wav
Peak level 99.8 %
Track quality 100.0 %
Test CRC BE028DFB
Copy CRC BE028DFB
Accurately ripped (confidence 29) [BA9BECB0]
Copy OK
Track 16
Filename E:\VA - 2006 - What It Is! Funky Soul And Rare Grooves Disc 04\16 - Oscar Brown, Jr. - Chicken Heads.wav
Pre-gap length 0:00:01.10
Peak level 99.8 %
Track quality 100.0 %
Test CRC 5494EDEF
Copy CRC 5494EDEF
Accurately ripped (confidence 29) [EAAF5FCB]
Copy OK
Track 17
Filename E:\VA - 2006 - What It Is! Funky Soul And Rare Grooves Disc 04\17 - Funk Factory - Rien Ne Va Plus.wav
Peak level 94.2 %
Track quality 100.0 %
Test CRC B057D303
Copy CRC B057D303
Accurately ripped (confidence 29) [108C6B1F]
Copy OK
Track 18
Filename E:\VA - 2006 - What It Is! Funky Soul And Rare Grooves Disc 04\18 - Herbie Mann - Cajun Moon.wav
Pre-gap length 0:00:01.01
Peak level 94.2 %
Track quality 99.9 %
Test CRC AAD691AB
Copy CRC AAD691AB
Accurately ripped (confidence 29) [6B3A306E]
Copy OK
Track 19
Filename E:\VA - 2006 - What It Is! Funky Soul And Rare Grooves Disc 04\19 - Darrow Flechter - Improve.wav
Peak level 95.3 %
Track quality 100.0 %
Test CRC 3C9EF0D3
Copy CRC 3C9EF0D3
Accurately ripped (confidence 29) [942BBC96]
Copy OK
Track 20
Filename E:\VA - 2006 - What It Is! Funky Soul And Rare Grooves Disc 04\20 - Faze-O - Riding High.wav
Peak level 99.2 %
Track quality 100.0 %
Test CRC 89DFFC96
Copy CRC 89DFFC96
Accurately ripped (confidence 29) [EF9E0ED5]
Copy OK
Track 21
Filename E:\VA - 2006 - What It Is! Funky Soul And Rare Grooves Disc 04\21 - Fred Wesley & The Horny Horns - Four Play.wav
Pre-gap length 0:00:01.70
Peak level 99.8 %
Track quality 100.0 %
Test CRC 02B9BDCD
Copy CRC 02B9BDCD
Accurately ripped (confidence 29) [F54AFE68]
Copy OK
Track 22
Filename E:\VA - 2006 - What It Is! Funky Soul And Rare Grooves Disc 04\22 - Eddie Hazel - California Dreamin'.wav
Peak level 94.2 %
Track quality 99.9 %
Test CRC EE3E1EBA
Copy CRC EE3E1EBA
Accurately ripped (confidence 27) [FC06FED5]
Copy OK
All tracks accurately ripped
No errors occurred
End of status report

 
CUE 1
REM GENRE Soul
REM DATE 2006
REM DISCID 9611E71B
REM COMMENT "ExactAudioCopy v0.99pb5"
FILE "01 - The Watts 103rd St. Rhythm Band - Spreadin' Honey.wav" WAVE
TRACK 01 AUDIO
INDEX 01 00:00:00
TRACK 02 AUDIO
FLAGS DCP
INDEX 00 02:24:30
FILE "02 - Bar-Kays - Soul Finger.wav" WAVE
INDEX 01 00:00:00
FILE "03 - Brother Jack McDuff - The Shadow Of Your Smile.wav" WAVE
TRACK 03 AUDIO
FLAGS DCP
INDEX 01 00:00:00
FILE "04 - Jimmy Norman - Gangster Of Love (Parts I & II).wav" WAVE
TRACK 04 AUDIO
FLAGS DCP
INDEX 01 00:00:00
TRACK 05 AUDIO
FLAGS DCP
INDEX 00 04:09:25
FILE "05 - Rufus Thomas - The Memphis Train.wav" WAVE
INDEX 01 00:00:00
FILE "06 - Grassella Oliphant - Get Out Of My Life Woman.wav" WAVE
TRACK 06 AUDIO
FLAGS DCP
INDEX 01 00:00:00
TRACK 07 AUDIO
FLAGS DCP
INDEX 00 02:42:07
FILE "07 - Eddie Harris - Live Right Now.wav" WAVE
INDEX 01 00:00:00
FILE "08 - Natural Bridge Bunch - Pig Snootss, Part I.wav" WAVE
TRACK 08 AUDIO
FLAGS DCP
INDEX 01 00:00:00
TRACK 09 AUDIO
FLAGS DCP
INDEX 00 02:34:28
FILE "09 - The Freedom Sounds Feat. Wayne Henderson - Soul Sound System.wav" WAVE
INDEX 01 00:00:00
TRACK 10 AUDIO
FLAGS DCP
INDEX 00 05:32:59
FILE "10 - Clarence Carter - Snatching It Back.wav" WAVE
INDEX 01 00:00:00
TRACK 11 AUDIO
FLAGS DCP
INDEX 00 02:40:22
FILE "11 - Artie Christopher - Stoned Soul.wav" WAVE
INDEX 01 00:00:00
FILE "12 - The T.S.U. Toronadoes - Getting The Corners.wav" WAVE
TRACK 12 AUDIO
FLAGS DCP
INDEX 01 00:00:00
FILE "13 - Tony Alvon & The Belairs - Sexy Coffee Pot.wav" WAVE
TRACK 13 AUDIO
FLAGS DCP
INDEX 01 00:00:00
TRACK 14 AUDIO
FLAGS DCP
INDEX 00 02:27:53
FILE "14 - Mark Putney - Don't Come Around Here Anymore.wav" WAVE
INDEX 01 00:00:00
TRACK 15 AUDIO
FLAGS DCP
INDEX 00 02:42:14
FILE "15 - The Commodores - Keep On Dancing.wav" WAVE
INDEX 01 00:00:00
TRACK 16 AUDIO
FLAGS DCP
INDEX 00 02:38:01
FILE "16 - The Southshore Commission - Right On Brother - Part I.wav" WAVE
INDEX 01 00:00:00
TRACK 17 AUDIO
FLAGS DCP
INDEX 00 02:38:35
FILE "17 - Eldridge Holmes - Pop, Popcorn Children.wav" WAVE
INDEX 01 00:00:00
FILE "18 - Cold Grits - It's Your Thing.wav" WAVE
TRACK 18 AUDIO
FLAGS DCP
INDEX 01 00:00:00
FILE "19 - Soul Angels - It's All In Your Mind.wav" WAVE
TRACK 19 AUDIO
FLAGS DCP
INDEX 01 00:00:00
TRACK 20 AUDIO
FLAGS DCP
INDEX 00 02:48:25
FILE "20 - Johnny Cameron & The Camerons - Funky John.wav" WAVE
INDEX 01 00:00:00
TRACK 21 AUDIO
FLAGS DCP
INDEX 00 02:46:44
FILE "21 - Joyce Jones - Help Me Make Up My Mind.wav" WAVE
INDEX 01 00:00:00
TRACK 22 AUDIO
FLAGS DCP
INDEX 00 02:44:54
FILE "22 - Lou Johnson - Rock Me Baby.wav" WAVE
INDEX 01 00:00:00
TRACK 23 AUDIO
FLAGS DCP
INDEX 00 02:13:52
FILE "23 - The Noble Knights - Sing A Simple Song.wav" WAVE
INDEX 01 00:00:00
TRACK 24 AUDIO
FLAGS DCP
INDEX 00 02:56:18
FILE "24 - Titus Turner - Do You Dig It.wav" WAVE
INDEX 01 00:00:00
TRACK 25 AUDIO
FLAGS DCP
INDEX 00 02:11:32
FILE "25 - Phil Moore Jr. - Funky Canyon.wav" WAVE
INDEX 01 00:00:00
TRACK 26 AUDIO
FLAGS DCP
INDEX 00 02:37:11
FILE "26 - The Fabulous Counts - Jan Jan.wav" WAVE
INDEX 01 00:00:00
TRACK 27 AUDIO
FLAGS DCP
INDEX 00 02:16:02
FILE "27 - The Rhine Oaks - Tampin.wav" WAVE
INDEX 01 00:00:00
 
CUE 2
REM GENRE Soul
REM DATE 2006
REM DISCID 27116215
REM COMMENT "ExactAudioCopy v0.99pb5"
FILE "01 - Cyril Neville - Gossip.wav" WAVE
TRACK 01 AUDIO
INDEX 01 00:00:00
TRACK 02 AUDIO
FLAGS DCP
INDEX 00 02:36:52
FILE "02 - The Mighty Hannibal - Somebody In The World For You.wav" WAVE
INDEX 01 00:00:00
TRACK 03 AUDIO
FLAGS DCP
INDEX 00 02:54:15
FILE "03 - Little Sister - Stanga.wav" WAVE
INDEX 01 00:00:00
TRACK 04 AUDIO
FLAGS DCP
INDEX 00 03:40:43
FILE "04 - Ananda Shankar - Jumpin' Jack Flash.wav" WAVE
INDEX 01 00:00:00
FILE "05 - Brute Force - The Deacon.wav" WAVE
TRACK 05 AUDIO
FLAGS DCP
INDEX 01 00:00:00
TRACK 06 AUDIO
FLAGS DCP
INDEX 00 04:30:47
FILE "06 - Don Covay & The Jefferson Lemon Blues Band - Sookie Sookie.wav" WAVE
INDEX 01 00:00:00
FILE "07 - Clarence Wheeler & The Enforcers - Right On.wav" WAVE
TRACK 07 AUDIO
FLAGS DCP
INDEX 01 00:00:00
TRACK 08 AUDIO
FLAGS DCP
INDEX 00 04:39:24
FILE "08 - Curtis Mayfield - (Don't Worry) If There's A Hell Below We're All Going To Go.wav" WAVE
INDEX 01 00:00:00
FILE "09 - Johnny Harris - Stepping Stones.wav" WAVE
TRACK 09 AUDIO
FLAGS DCP
INDEX 01 00:00:00
TRACK 10 AUDIO
FLAGS DCP
INDEX 00 05:22:53
FILE "10 - 6ix - I'm Just Like You.wav" WAVE
INDEX 01 00:00:00
FILE "11 - The Unemployed - Funky Thing - Part I.wav" WAVE
TRACK 11 AUDIO
FLAGS DCP
INDEX 01 00:00:00
TRACK 12 AUDIO
FLAGS DCP
INDEX 00 03:05:18
FILE "12 - Shirley Scott - Messie Bessie.wav" WAVE
INDEX 01 00:00:00
TRACK 13 AUDIO
FLAGS DCP
INDEX 00 04:18:38
FILE "13 - Willie West - Fairchild.wav" WAVE
INDEX 01 00:00:00
FILE "14 - The Gaturs - Cold Bear.wav" WAVE
TRACK 14 AUDIO
FLAGS DCP
INDEX 01 00:00:00
FILE "15 - Mongo Santamaria - I Can't Get Next To You.wav" WAVE
TRACK 15 AUDIO
FLAGS DCP
INDEX 01 00:00:00
TRACK 16 AUDIO
FLAGS DCP
INDEX 00 02:42:64
FILE "16 - Lulu - Feelin' Alright.wav" WAVE
INDEX 01 00:00:00
TRACK 17 AUDIO
FLAGS DCP
INDEX 00 03:00:22
FILE "17 - Memphis Horns - Soul Bowl.wav" WAVE
INDEX 01 00:00:00
TRACK 18 AUDIO
FLAGS DCP
INDEX 00 03:20:39
FILE "18 - Hammer - Tuane.wav" WAVE
INDEX 01 00:00:00
TRACK 19 AUDIO
FLAGS DCP
INDEX 00 03:06:43
FILE "19 - Johnny Tolbert & De Thangs - Take It Off - Part II.wav" WAVE
INDEX 01 00:00:00
TRACK 20 AUDIO
FLAGS DCP
INDEX 00 03:15:57
FILE "20 - Harlem River Drive feat. Eddie Palmieri & Jimmy Norman - Seeds of Life.wav" WAVE
INDEX 01 00:00:00
FILE "21 - Wilson Pickett - Engine Number 9.wav" WAVE
TRACK 21 AUDIO
FLAGS DCP
INDEX 01 00:00:00
 
CUE 3
REM GENRE Funk
REM DATE 2006
REM DISCID 23123415
REM COMMENT "ExactAudioCopy v0.99pb5"
FILE "01 - Baby Huey & The Baby Sitters - Hard Times.wav" WAVE
TRACK 01 AUDIO
INDEX 01 00:00:00
TRACK 02 AUDIO
FLAGS DCP
INDEX 00 03:19:69
FILE "02 - Houseguests - What So Never The Dance - Pt. I & II.wav" WAVE
INDEX 01 00:00:00
FILE "03 - Eugene McDaniels - Headless Heroes.wav" WAVE
TRACK 03 AUDIO
FLAGS DCP
INDEX 01 00:00:00
TRACK 04 AUDIO
FLAGS DCP
INDEX 00 03:32:52
FILE "04 - Wade Marcus - Spinning Wheel.wav" WAVE
INDEX 01 00:00:00
FILE "05 - Earth, Wind & Fire - Bad Tune.wav" WAVE
TRACK 05 AUDIO
FLAGS DCP
INDEX 01 00:00:00
FILE "06 - Rasputin's Stash - Mr. Cool.wav" WAVE
TRACK 06 AUDIO
FLAGS DCP
INDEX 01 00:00:00
FILE "07 - Junior Mance - Don't Cha Hear Me Callin' To Ya.wav" WAVE
TRACK 07 AUDIO
FLAGS DCP
INDEX 01 00:00:00
FILE "08 - The Stovall Sisters - Hang On In There.wav" WAVE
TRACK 08 AUDIO
FLAGS DCP
INDEX 01 00:00:00
FILE "09 - The Beginning Of The End - Funky Nassau - Pt. III.wav" WAVE
TRACK 09 AUDIO
FLAGS DCP
INDEX 01 00:00:00
TRACK 10 AUDIO
FLAGS DCP
INDEX 00 01:58:44
FILE "10 - Mark Holder & The Positives - Whatever's Fair.wav" WAVE
INDEX 01 00:00:00
TRACK 11 AUDIO
FLAGS DCP
INDEX 00 02:41:53
FILE "11 - Ed Robinson - Face It.wav" WAVE
INDEX 01 00:00:00
FILE "12 - Young-Holt Unlimited - Wah Wah Man.wav" WAVE
TRACK 12 AUDIO
FLAGS DCP
INDEX 01 00:00:00
FILE "13 - Aretha Franklin - Rock Steady [Alternate Mix].wav" WAVE
TRACK 13 AUDIO
FLAGS DCP
INDEX 01 00:00:00
TRACK 14 AUDIO
FLAGS DCP
INDEX 00 04:30:33
FILE "14 - Black Haze Express - Won't Nobody Listen.wav" WAVE
INDEX 01 00:00:00
TRACK 15 AUDIO
FLAGS DCP
INDEX 00 04:15:37
FILE "15 - Allen Toussaint - Goin' Down.wav" WAVE
INDEX 01 00:00:00
TRACK 16 AUDIO
FLAGS DCP
INDEX 00 02:56:61
FILE "16 - Malo - Suavecito.wav" WAVE
INDEX 01 00:00:00
FILE "17 - Charles Wright - You Gotta Know Whatcha Doin'.wav" WAVE
TRACK 17 AUDIO
FLAGS DCP
INDEX 01 00:00:00
FILE "18 - Tami Lynn - Mo Jo Hanna.wav" WAVE
TRACK 18 AUDIO
FLAGS DCP
INDEX 01 00:00:00
TRACK 19 AUDIO
FLAGS DCP
INDEX 00 03:24:48
FILE "19 - King Curtis - Ridin' Thumb.wav" WAVE
INDEX 01 00:00:00
FILE "20 - Macondo - Almendra.wav" WAVE
TRACK 20 AUDIO
FLAGS DCP
INDEX 01 00:00:00
TRACK 21 AUDIO
FLAGS DCP
INDEX 00 03:45:08
FILE "21 - Little Richard - Nuki Suki.wav" WAVE
INDEX 01 00:00:00
 
CUE 4
REM GENRE Soul
REM DATE 2006
REM DISCID 56127A16
REM COMMENT "ExactAudioCopy v0.99pb5"
FILE "01 - United 8 - Getting Uptown (To Get Down).wav" WAVE
TRACK 01 AUDIO
INDEX 01 00:00:00
FILE "02 - Howard Tate - 8 Days On The Road.wav" WAVE
TRACK 02 AUDIO
FLAGS DCP
INDEX 01 00:00:00
FILE "03 - Labelle - Moon Shadow.wav" WAVE
TRACK 03 AUDIO
FLAGS DCP
INDEX 01 00:00:00
FILE "04 - Society's Bag - Let It Crawl.wav" WAVE
TRACK 04 AUDIO
FLAGS DCP
INDEX 01 00:00:00
FILE "05 - Black Heat - Wanaoh.wav" WAVE
TRACK 05 AUDIO
FLAGS DCP
INDEX 01 00:00:00
TRACK 06 AUDIO
FLAGS DCP
INDEX 00 03:52:16
FILE "06 - Clarence Reid - If It Was Good Enough For Daddy.wav" WAVE
INDEX 01 00:00:00
TRACK 07 AUDIO
FLAGS DCP
INDEX 00 03:03:62
FILE "07 - Claudia Lennear - Everything I Do Gonna Be Funky.wav" WAVE
INDEX 01 00:00:00
TRACK 08 AUDIO
FLAGS DCP
INDEX 00 03:42:54
FILE "08 - The Mystic Moods - Cosmic Sea.wav" WAVE
INDEX 01 00:00:00
FILE "09 - Cold Blood - Kissing My Love.wav" WAVE
TRACK 09 AUDIO
FLAGS DCP
INDEX 01 00:00:00
TRACK 10 AUDIO
FLAGS DCP
INDEX 00 06:04:66
FILE "10 - Seatrain - Flute Thing.wav" WAVE
INDEX 01 00:00:00
FILE "11 - The Meters - Chug Chug Chug-A-Lug (Push N' Shove) - Part II.wav" WAVE
TRACK 11 AUDIO
FLAGS DCP
INDEX 01 00:00:00
FILE "12 - Freddi, Henchi & The Soul Setters - Funky To The Bone.wav" WAVE
TRACK 12 AUDIO
FLAGS DCP
INDEX 01 00:00:00
TRACK 13 AUDIO
FLAGS DCP
INDEX 00 02:41:19
FILE "13 - Bobby Byrd - Try It Again.wav" WAVE
INDEX 01 00:00:00
FILE "14 - Cornell Dupree - Teasin'.wav" WAVE
TRACK 14 AUDIO
FLAGS DCP
INDEX 01 00:00:00
FILE "15 - Dr. John - (Everybody Wanna Get Rich) Rite Away.wav" WAVE
TRACK 15 AUDIO
FLAGS DCP
INDEX 01 00:00:00
TRACK 16 AUDIO
FLAGS DCP
INDEX 00 02:43:07
FILE "16 - Oscar Brown, Jr. - Chicken Heads.wav" WAVE
INDEX 01 00:00:00
FILE "17 - Funk Factory - Rien Ne Va Plus.wav" WAVE
TRACK 17 AUDIO
FLAGS DCP
INDEX 01 00:00:00
TRACK 18 AUDIO
FLAGS DCP
INDEX 00 05:17:48
FILE "18 - Herbie Mann - Cajun Moon.wav" WAVE
INDEX 01 00:00:00
FILE "19 - Darrow Fletcher - Improve.wav" WAVE
TRACK 19 AUDIO
FLAGS DCP
INDEX 01 00:00:00
FILE "20 - Faze-O - Riding High.wav" WAVE
TRACK 20 AUDIO
FLAGS DCP
INDEX 01 00:00:00
TRACK 21 AUDIO
FLAGS DCP
INDEX 00 05:19:27
FILE "21 - Fred Wesley & The Horny Horns - Four Play.wav" WAVE
INDEX 01 00:00:00
FILE "22 - Eddie Hazel - California Dreamin'.wav" WAVE
TRACK 22 AUDIO
FLAGS DCP
INDEX 01 00:00:00
Приватный:
Нет (DHT включён)
Размер:
1.74 Гб (1,863,954,713 байт) » файлов: 115
Участники:
0 раздают, 0 качают (0 участников всего)
Внешние участники:
2 раздают, 1 качают (3 участников всего) [ Обновить ]
Нет сидеров - пишите личное сообщение M0p94ok. Не нравятся торренты? Участники группы Pro-jazz Club могут заказать прямую ссылку на скачивание из облака.
No seeders - write a personal message to M0p94ok. Don't like torrents? Members of Pro-jazz Club group can order a direct download link from the cloud.
03:39
36
Нет комментариев. Ваш будет первым!