Поиск

(Funk, Soul) VA - The Complete Stax-Volt Singles 1959-1968 (7 82218-2) - 1991, FLAC (tracks+.cue), lossless

(Funk, Soul) VA - The Complete Stax-Volt Singles 1959-1968 (7 82218-2) - 1991, FLAC (tracks+.cue), lossless
Треклист:
Various Artists - The Complete Stax-Volt Singles 1959-1968
Жанр: Funk, Soul
Год выпуска диска: 1991
Производитель диска: US \ Atlantic
Аудио кодек: FLAC
Тип рипа: tracks+.cue
Битрейт аудио: lossless
Продолжительность: 10:50:03

from what.cd
 
CD 1
Продолжительность: 72 min 34 sec
1. Veltones - Fool In Love (1:59)
2. Carla & Rufus - 'Cause I Love You (2:46)
3. Carla Thomas - Gee Whiz (2:21)
4. Chips - You Make Me Feel So Good (2:14)
5. Carla Thomas - A Love Of My Own (2:30)
6. Mar-Keys - Last Night (2:39)
7. Rufus & Friend - I Didn't Believe (2:12)
8. Prince Conley - I'm Going Home (2:51)
9. Carla Thomas - (Mama, Mama) Wish Me Good Luck (2:25)
10. Mar-Keys - Morning After (2:15)
11. Barbara Stephens - The Life I Live (2:26)
12. Mar-Keys - About Noon (2:33)
13. Triumphs - Burnt Biscuits (2:01)
14. Carla Thomas - I Kinda Think He Does (2:38)
15. Mar-Keys - Foxy (2:17)
16. William Bell - You Don't Miss Your Water (3:00)
17. William Bell - Formula Of Love (2:08)
18. Macy Skipper - Goofin' Off (3:01)
19. Barbara Stephens - Wait A Minute (2:25)
20. Nick Charles - Sunday Jealous (2:57)
21. Barbara Stephens - That's The Way It Is With Me (2:27)
22. The Tonettes - No Tears (2:34)
23. Mar-Keys - Pop-Eye Stroll (2:46)
24. Nick Charles - The Three Dogwoods (2:29)
25. The Canes - Why Should I Suffer With The Blues (2:53)
26. The Mar-Keys - Whot's Happenin'! (2:30)
27. The Del-Rios - Just Across The Street (2:23)
28. The Del-Rios - There's A Love (2:20)
29. Rufus Thomas - Can't Ever Let You Go (2:34)
 
Log EAC
EAC extraction logfile from 23. October 2005, 6:06 for CD
Various / The Complete Stax/Volt Singles: 1959-1968 (Disc 1)
Used drive : LITE-ON DVDRW SOHW-1633S Adapter: 0 ID: 0
Read mode : Secure with NO C2, accurate stream, disable cache
Read offset correction : 12
Overread into Lead-In and Lead-Out : No
Used output format : Internal WAV Routines
44.100 Hz; 16 Bit; Stereo
Other options :
Fill up missing offset samples with silence : Yes
Delete leading and trailing silent blocks : No
Installed external ASPI interface
Track 1
Filename C:\FLAC\VA - The Complete Stax Volt Singles 1959-1968 Volume 1 (1991) [FLAC]\01 - Veltones - Fool In Love.wav
Pre-gap length 0:00:02.32
Peak level 72.2 %
Track quality 99.9 %
Test CRC 9747F5BE
Copy CRC 9747F5BE
Copy OK
Track 2
Filename C:\FLAC\VA - The Complete Stax Volt Singles 1959-1968 Volume 1 (1991) [FLAC]\02 - Carla & Rufus - 'Cause I Love You.wav
Pre-gap length 0:00:00.70
Peak level 86.0 %
Track quality 100.0 %
Test CRC AEF5D22A
Copy CRC AEF5D22A
Copy OK
Track 3
Filename C:\FLAC\VA - The Complete Stax Volt Singles 1959-1968 Volume 1 (1991) [FLAC]\03 - Carla Thomas - Gee Whiz.wav
Pre-gap length 0:00:02.00
Peak level 78.9 %
Track quality 100.0 %
Test CRC 36784121
Copy CRC 36784121
Copy OK
Track 4
Filename C:\FLAC\VA - The Complete Stax Volt Singles 1959-1968 Volume 1 (1991) [FLAC]\04 - Chips - You Make Me Feel So Good.wav
Pre-gap length 0:00:01.63
Peak level 68.8 %
Track quality 100.0 %
Test CRC A19A4D49
Copy CRC A19A4D49
Copy OK
Track 5
Filename C:\FLAC\VA - The Complete Stax Volt Singles 1959-1968 Volume 1 (1991) [FLAC]\05 - Carla Thomas - A Love Of My Own.wav
Pre-gap length 0:00:01.73
Peak level 82.9 %
Track quality 100.0 %
Test CRC 5F821E77
Copy CRC 5F821E77
Copy OK
Track 6
Filename C:\FLAC\VA - The Complete Stax Volt Singles 1959-1968 Volume 1 (1991) [FLAC]\06 - Mar-Keys - Last Night.wav
Pre-gap length 0:00:02.00
Peak level 81.5 %
Track quality 100.0 %
Test CRC D08E7B19
Copy CRC D08E7B19
Copy OK
Track 7
Filename C:\FLAC\VA - The Complete Stax Volt Singles 1959-1968 Volume 1 (1991) [FLAC]\07 - Rufus & Friend - I Didn't Believe.wav
Pre-gap length 0:00:02.00
Peak level 93.4 %
Track quality 100.0 %
Test CRC 1D73D3FB
Copy CRC 1D73D3FB
Copy OK
Track 8
Filename C:\FLAC\VA - The Complete Stax Volt Singles 1959-1968 Volume 1 (1991) [FLAC]\08 - Prince Conley - I'm Going Home.wav
Pre-gap length 0:00:02.02
Peak level 88.2 %
Track quality 100.0 %
Test CRC 66E0435D
Copy CRC 66E0435D
Copy OK
Track 9
Filename C:\FLAC\VA - The Complete Stax Volt Singles 1959-1968 Volume 1 (1991) [FLAC]\09 - Carla Thomas - (Mama, Mama) Wish Me Good Luck.wav
Pre-gap length 0:00:02.02
Peak level 85.4 %
Track quality 100.0 %
Test CRC 225F68C7
Copy CRC 225F68C7
Copy OK
Track 10
Filename C:\FLAC\VA - The Complete Stax Volt Singles 1959-1968 Volume 1 (1991) [FLAC]\10 - Mar-Keys - Morning After.wav
Pre-gap length 0:00:02.62
Peak level 92.8 %
Track quality 100.0 %
Test CRC B84D5783
Copy CRC B84D5783
Copy OK
Track 11
Filename C:\FLAC\VA - The Complete Stax Volt Singles 1959-1968 Volume 1 (1991) [FLAC]\11 - Barbara Stephens - The Life I Live.wav
Pre-gap length 0:00:02.43
Peak level 93.2 %
Track quality 100.0 %
Test CRC 31521B81
Copy CRC 31521B81
Copy OK
Track 12
Filename C:\FLAC\VA - The Complete Stax Volt Singles 1959-1968 Volume 1 (1991) [FLAC]\12 - Mar-Keys - About Noon.wav
Pre-gap length 0:00:02.23
Peak level 100.0 %
Track quality 100.0 %
Test CRC 622339DB
Copy CRC 622339DB
Copy OK
Track 13
Filename C:\FLAC\VA - The Complete Stax Volt Singles 1959-1968 Volume 1 (1991) [FLAC]\13 - Triumphs - Burnt Biscuits.wav
Pre-gap length 0:00:02.30
Peak level 89.2 %
Track quality 99.9 %
Test CRC C79EDE42
Copy CRC C79EDE42
Copy OK
Track 14
Filename C:\FLAC\VA - The Complete Stax Volt Singles 1959-1968 Volume 1 (1991) [FLAC]\14 - Carla Thomas - I Kinda Think He Does.wav
Pre-gap length 0:00:02.73
Peak level 89.9 %
Track quality 100.0 %
Test CRC ED2E3F4D
Copy CRC ED2E3F4D
Copy OK
Track 15
Filename C:\FLAC\VA - The Complete Stax Volt Singles 1959-1968 Volume 1 (1991) [FLAC]\15 - Mar-Keys - Foxy.wav
Pre-gap length 0:00:01.22
Peak level 99.9 %
Track quality 100.0 %
Test CRC F74B8802
Copy CRC F74B8802
Copy OK
Track 16
Filename C:\FLAC\VA - The Complete Stax Volt Singles 1959-1968 Volume 1 (1991) [FLAC]\16 - William Bell - You Don't Miss Your Water.wav
Pre-gap length 0:00:02.40
Peak level 88.1 %
Track quality 100.0 %
Test CRC 0A0CFF11
Copy CRC 0A0CFF11
Copy OK
Track 17
Filename C:\FLAC\VA - The Complete Stax Volt Singles 1959-1968 Volume 1 (1991) [FLAC]\17 - William Bell - Formula Of Love.wav
Pre-gap length 0:00:01.30
Peak level 92.3 %
Track quality 100.0 %
Test CRC 5CFDB404
Copy CRC 5CFDB404
Copy OK
Track 18
Filename C:\FLAC\VA - The Complete Stax Volt Singles 1959-1968 Volume 1 (1991) [FLAC]\18 - Macy Skipper - Goofin' Off.wav
Pre-gap length 0:00:02.15
Peak level 67.8 %
Track quality 100.0 %
Test CRC EDFD43A3
Copy CRC EDFD43A3
Copy OK
Track 19
Filename C:\FLAC\VA - The Complete Stax Volt Singles 1959-1968 Volume 1 (1991) [FLAC]\19 - Barbara Stephens - Wait A Minute.wav
Pre-gap length 0:00:01.40
Peak level 100.0 %
Track quality 100.0 %
Test CRC 6F901FD2
Copy CRC 6F901FD2
Copy OK
Track 20
Filename C:\FLAC\VA - The Complete Stax Volt Singles 1959-1968 Volume 1 (1991) [FLAC]\20 - Nick Charles - Sunday Jealous.wav
Pre-gap length 0:00:01.37
Peak level 79.4 %
Track quality 100.0 %
Test CRC 9FDA7F5E
Copy CRC 9FDA7F5E
Copy OK
Track 21
Filename C:\FLAC\VA - The Complete Stax Volt Singles 1959-1968 Volume 1 (1991) [FLAC]\21 - Barbara Stephens - That's The Way It Is With Me.wav
Pre-gap length 0:00:01.55
Peak level 90.3 %
Track quality 100.0 %
Test CRC CDC6A64F
Copy CRC CDC6A64F
Copy OK
Track 22
Filename C:\FLAC\VA - The Complete Stax Volt Singles 1959-1968 Volume 1 (1991) [FLAC]\22 - The Tonettes - No Tears.wav
Pre-gap length 0:00:02.15
Peak level 72.3 %
Track quality 100.0 %
Test CRC 97587F04
Copy CRC 97587F04
Copy OK
Track 23
Filename C:\FLAC\VA - The Complete Stax Volt Singles 1959-1968 Volume 1 (1991) [FLAC]\23 - Mar-Keys - Pop-Eye Stroll.wav
Pre-gap length 0:00:01.47
Peak level 80.8 %
Track quality 100.0 %
Test CRC 04DCFAB1
Copy CRC 04DCFAB1
Copy OK
Track 24
Filename C:\FLAC\VA - The Complete Stax Volt Singles 1959-1968 Volume 1 (1991) [FLAC]\24 - Nick Charles - The Three Dogwoods.wav
Pre-gap length 0:00:02.51
Peak level 86.1 %
Track quality 100.0 %
Test CRC 20E39B52
Copy CRC 20E39B52
Copy OK
Track 25
Filename C:\FLAC\VA - The Complete Stax Volt Singles 1959-1968 Volume 1 (1991) [FLAC]\25 - The Canes - Why Should I Suffer With The Blues.wav
Pre-gap length 0:00:02.64
Peak level 73.9 %
Track quality 100.0 %
Test CRC B6193A74
Copy CRC B6193A74
Copy OK
Track 26
Filename C:\FLAC\VA - The Complete Stax Volt Singles 1959-1968 Volume 1 (1991) [FLAC]\26 - The Mar-Keys - Whot's Happenin'!.wav
Pre-gap length 0:00:01.70
Peak level 81.9 %
Track quality 100.0 %
Test CRC E02B46DF
Copy CRC E02B46DF
Copy OK
Track 27
Filename C:\FLAC\VA - The Complete Stax Volt Singles 1959-1968 Volume 1 (1991) [FLAC]\27 - The Del-Rios - Just Across The Street.wav
Pre-gap length 0:00:02.24
Peak level 83.1 %
Track quality 100.0 %
Test CRC FC206591
Copy CRC FC206591
Copy OK
Track 28
Filename C:\FLAC\VA - The Complete Stax Volt Singles 1959-1968 Volume 1 (1991) [FLAC]\28 - The Del-Rios - There's A Love.wav
Pre-gap length 0:00:02.25
Peak level 76.7 %
Track quality 100.0 %
Test CRC 3AFC3751
Copy CRC 3AFC3751
Copy OK
Track 29
Filename C:\FLAC\VA - The Complete Stax Volt Singles 1959-1968 Volume 1 (1991) [FLAC]\29 - Rufus Thomas - Can't Ever Let You Go.wav
Pre-gap length 0:00:01.29
Peak level 89.6 %
Track quality 100.0 %
Test CRC 871E720C
Copy CRC 871E720C
Copy OK
No errors occured
End of status report
 
CUE
PERFORMER "Various"
TITLE "The Complete Stax/Volt Singles: 1959-1968 (Disc 1)"
FILE "01 - Veltones - Fool In Love.wav" WAVE
TRACK 01 AUDIO
TITLE "Veltones - Fool In Love"
PERFORMER "Veltones - Fool In Love"
INDEX 01 00:00:00
TRACK 02 AUDIO
TITLE "Carla & Rufus - 'Cause I Love You"
PERFORMER "Carla & Rufus - 'Cause I Love You"
INDEX 00 01:58:43
FILE "02 - Carla & Rufus - 'Cause I Love You.wav" WAVE
INDEX 01 00:00:00
TRACK 03 AUDIO
TITLE "Carla Thomas - Gee Whiz"
PERFORMER "Carla Thomas - Gee Whiz"
INDEX 00 02:44:45
FILE "03 - Carla Thomas - Gee Whiz.wav" WAVE
INDEX 01 00:00:00
TRACK 04 AUDIO
TITLE "Chips - You Make Me Feel So Good"
PERFORMER "Chips - You Make Me Feel So Good"
INDEX 00 02:19:37
FILE "04 - Chips - You Make Me Feel So Good.wav" WAVE
INDEX 01 00:00:00
TRACK 05 AUDIO
TITLE "Carla Thomas - A Love Of My Own"
PERFORMER "Carla Thomas - A Love Of My Own"
INDEX 00 02:12:47
FILE "05 - Carla Thomas - A Love Of My Own.wav" WAVE
INDEX 01 00:00:00
TRACK 06 AUDIO
TITLE "Mar-Keys - Last Night"
PERFORMER "Mar-Keys - Last Night"
INDEX 00 02:28:47
FILE "06 - Mar-Keys - Last Night.wav" WAVE
INDEX 01 00:00:00
TRACK 07 AUDIO
TITLE "Rufus & Friend - I Didn't Believe"
PERFORMER "Rufus & Friend - I Didn't Believe"
INDEX 00 02:37:43
FILE "07 - Rufus & Friend - I Didn't Believe.wav" WAVE
INDEX 01 00:00:00
TRACK 08 AUDIO
TITLE "Prince Conley - I'm Going Home"
PERFORMER "Prince Conley - I'm Going Home"
INDEX 00 02:10:25
FILE "08 - Prince Conley - I'm Going Home.wav" WAVE
INDEX 01 00:00:00
TRACK 09 AUDIO
TITLE "Carla Thomas - (Mama, Mama) Wish Me Good Luck"
PERFORMER "Carla Thomas - (Mama, Mama) Wish Me Good Luck"
INDEX 00 02:49:31
FILE "09 - Carla Thomas - (Mama, Mama) Wish Me Good Luck.wav" WAVE
INDEX 01 00:00:00
TRACK 10 AUDIO
TITLE "Mar-Keys - Morning After"
PERFORMER "Mar-Keys - Morning After"
INDEX 00 02:22:40
FILE "10 - Mar-Keys - Morning After.wav" WAVE
INDEX 01 00:00:00
TRACK 11 AUDIO
TITLE "Barbara Stephens - The Life I Live"
PERFORMER "Barbara Stephens - The Life I Live"
INDEX 00 02:12:35
FILE "11 - Barbara Stephens - The Life I Live.wav" WAVE
INDEX 01 00:00:00
TRACK 12 AUDIO
TITLE "Mar-Keys - About Noon"
PERFORMER "Mar-Keys - About Noon"
INDEX 00 02:23:52
FILE "12 - Mar-Keys - About Noon.wav" WAVE
INDEX 01 00:00:00
TRACK 13 AUDIO
TITLE "Triumphs - Burnt Biscuits"
PERFORMER "Triumphs - Burnt Biscuits"
INDEX 00 02:31:37
FILE "13 - Triumphs - Burnt Biscuits.wav" WAVE
INDEX 01 00:00:00
TRACK 14 AUDIO
TITLE "Carla Thomas - I Kinda Think He Does"
PERFORMER "Carla Thomas - I Kinda Think He Does"
INDEX 00 01:58:40
FILE "14 - Carla Thomas - I Kinda Think He Does.wav" WAVE
INDEX 01 00:00:00
TRACK 15 AUDIO
TITLE "Mar-Keys - Foxy"
PERFORMER "Mar-Keys - Foxy"
INDEX 00 02:37:40
FILE "15 - Mar-Keys - Foxy.wav" WAVE
INDEX 01 00:00:00
TRACK 16 AUDIO
TITLE "William Bell - You Don't Miss Your Water"
PERFORMER "William Bell - You Don't Miss Your Water"
INDEX 00 02:14:50
FILE "16 - William Bell - You Don't Miss Your Water.wav" WAVE
INDEX 01 00:00:00
TRACK 17 AUDIO
TITLE "William Bell - Formula Of Love"
PERFORMER "William Bell - Formula Of Love"
INDEX 00 02:59:40
FILE "17 - William Bell - Formula Of Love.wav" WAVE
INDEX 01 00:00:00
TRACK 18 AUDIO
TITLE "Macy Skipper - Goofin' Off"
PERFORMER "Macy Skipper - Goofin' Off"
INDEX 00 02:06:10
FILE "18 - Macy Skipper - Goofin' Off.wav" WAVE
INDEX 01 00:00:00
TRACK 19 AUDIO
TITLE "Barbara Stephens - Wait A Minute"
PERFORMER "Barbara Stephens - Wait A Minute"
INDEX 00 02:59:45
FILE "19 - Barbara Stephens - Wait A Minute.wav" WAVE
INDEX 01 00:00:00
TRACK 20 AUDIO
TITLE "Nick Charles - Sunday Jealous"
PERFORMER "Nick Charles - Sunday Jealous"
INDEX 00 02:23:51
FILE "20 - Nick Charles - Sunday Jealous.wav" WAVE
INDEX 01 00:00:00
TRACK 21 AUDIO
TITLE "Barbara Stephens - That's The Way It Is With Me"
PERFORMER "Barbara Stephens - That's The Way It Is With Me"
INDEX 00 02:55:72
FILE "21 - Barbara Stephens - That's The Way It Is With Me.wav" WAVE
INDEX 01 00:00:00
TRACK 22 AUDIO
TITLE "The Tonettes - No Tears"
PERFORMER "The Tonettes - No Tears"
INDEX 00 02:25:30
FILE "22 - The Tonettes - No Tears.wav" WAVE
INDEX 01 00:00:00
TRACK 23 AUDIO
TITLE "Mar-Keys - Pop-Eye Stroll"
PERFORMER "Mar-Keys - Pop-Eye Stroll"
INDEX 00 02:32:43
FILE "23 - Mar-Keys - Pop-Eye Stroll.wav" WAVE
INDEX 01 00:00:00
TRACK 24 AUDIO
TITLE "Nick Charles - The Three Dogwoods"
PERFORMER "Nick Charles - The Three Dogwoods"
INDEX 00 02:43:32
FILE "24 - Nick Charles - The Three Dogwoods.wav" WAVE
INDEX 01 00:00:00
TRACK 25 AUDIO
TITLE "The Canes - Why Should I Suffer With The Blues"
PERFORMER "The Canes - Why Should I Suffer With The Blues"
INDEX 00 02:26:71
FILE "25 - The Canes - Why Should I Suffer With The Blues.wav" WAVE
INDEX 01 00:00:00
TRACK 26 AUDIO
TITLE "The Mar-Keys - Whot's Happenin'!"
PERFORMER "The Mar-Keys - Whot's Happenin'!"
INDEX 00 02:51:35
FILE "26 - The Mar-Keys - Whot's Happenin'!.wav" WAVE
INDEX 01 00:00:00
TRACK 27 AUDIO
TITLE "The Del-Rios - Just Across The Street"
PERFORMER "The Del-Rios - Just Across The Street"
INDEX 00 02:27:63
FILE "27 - The Del-Rios - Just Across The Street.wav" WAVE
INDEX 01 00:00:00
TRACK 28 AUDIO
TITLE "The Del-Rios - There's A Love"
PERFORMER "The Del-Rios - There's A Love"
INDEX 00 02:21:48
FILE "28 - The Del-Rios - There's A Love.wav" WAVE
INDEX 01 00:00:00
TRACK 29 AUDIO
TITLE "Rufus Thomas - Can't Ever Let You Go"
PERFORMER "Rufus Thomas - Can't Ever Let You Go"
INDEX 00 02:19:33
FILE "29 - Rufus Thomas - Can't Ever Let You Go.wav" WAVE
INDEX 01 00:00:00
 
CD 2
Продолжительность: 72 min 51 sec
1. Booker T. & The MGs - Green Onions (2:55)
2. Booker T. & The MGs - Behave Yourself (3:54)
3. William Bell - Any Other Way (2:31)
4. Carla Thomas - I'll Bring It Home To You (3:07)
5. Mar-Keys - Sack-O-Woe (2:33)
6. Otis Redding - These Arms Of Mine (2:33)
7. The Tonettes - Teardrop Sea (2:31)
8. Rufus Thomas - The Dog (2:37)
9. Booker T. & The MGs - Jelly Bread (2:33)
10. William Bell - I Told You So (2:32)
11. Mar-Keys - Bo-Time (2:45)
12. Booker T. & The MGs - Home Grown (3:15)
13. Deanie Parker & The Valadors - My Imaginary Guy (2:43)
14. William Bell - Just As I Thought (3:02)
15. Carla Thomas - What A Fool I've Been (2:17)
16. Eddie Kirk - The Hawg, Part One (2:53)
17. Oscar Mack - Don't Be Afraid Of Love (2:33)
18. Cheryl & Pam Johnson - That's My Guy (2:09)
19. Booker T. & The MGs - Chinese Checkers (2:29)
20. William Bell - Somebody Mentioned Your Name (3:05)
21. Bobby Marchan - What Can I Do (2:45)
22. Otis Redding - That's What My Heart Needs (2:42)
23. The Astors - What Can It Be (2:19)
24. Billy & The King Bees - Bango (2:19)
25. Eddie Kirk - Them Bones (2:23)
26. Rufus Thomas - Walking The Dog (2:37)
27. William Bell - I'll Show You (2:49)
 
Log EAC
EAC extraction logfile from 23. October 2005, 12:54 for CD
Various / The Complete Stax/Volt Singles: 1959-1968 (Disc 2)
Used drive : LITE-ON DVDRW SOHW-1633S Adapter: 0 ID: 0
Read mode : Secure with NO C2, accurate stream, disable cache
Read offset correction : 12
Overread into Lead-In and Lead-Out : No
Used output format : Internal WAV Routines
44.100 Hz; 16 Bit; Stereo
Other options :
Fill up missing offset samples with silence : Yes
Delete leading and trailing silent blocks : No
Installed external ASPI interface
Track 1
Filename C:\FLAC\VA - The Complete Stax Volt Singles 1959-1968 (Discs 1-3) (1991) [FLAC]\Disc 2\01 - Booker T. & The MGs - Green Onions.wav
Pre-gap length 0:00:02.33
Peak level 100.0 %
Track quality 100.0 %
Test CRC 79EBE6E7
Copy CRC 79EBE6E7
Copy OK
Track 2
Filename C:\FLAC\VA - The Complete Stax Volt Singles 1959-1968 (Discs 1-3) (1991) [FLAC]\Disc 2\02 - Booker T. & The MGs - Behave Yourself.wav
Pre-gap length 0:00:03.03
Peak level 99.9 %
Track quality 99.9 %
Test CRC 95E45817
Copy CRC 95E45817
Copy OK
Track 3
Filename C:\FLAC\VA - The Complete Stax Volt Singles 1959-1968 (Discs 1-3) (1991) [FLAC]\Disc 2\03 - William Bell - Any Other Way.wav
Pre-gap length 0:00:03.35
Peak level 96.9 %
Track quality 99.9 %
Test CRC 8DF856F9
Copy CRC 8DF856F9
Copy OK
Track 4
Filename C:\FLAC\VA - The Complete Stax Volt Singles 1959-1968 (Discs 1-3) (1991) [FLAC]\Disc 2\04 - Carla Thomas - I'll Bring It Home To You.wav
Pre-gap length 0:00:03.09
Peak level 92.5 %
Track quality 100.0 %
Test CRC 15D04BC4
Copy CRC 15D04BC4
Copy OK
Track 5
Filename C:\FLAC\VA - The Complete Stax Volt Singles 1959-1968 (Discs 1-3) (1991) [FLAC]\Disc 2\05 - Mar-Keys - Sack-O-Woe.wav
Pre-gap length 0:00:03.18
Peak level 86.3 %
Track quality 100.0 %
Test CRC 3216B567
Copy CRC 3216B567
Copy OK
Track 6
Filename C:\FLAC\VA - The Complete Stax Volt Singles 1959-1968 (Discs 1-3) (1991) [FLAC]\Disc 2\06 - Otis Redding - These Arms Of Mine.wav
Pre-gap length 0:00:03.01
Peak level 79.6 %
Track quality 100.0 %
Test CRC 096351A2
Copy CRC 096351A2
Copy OK
Track 7
Filename C:\FLAC\VA - The Complete Stax Volt Singles 1959-1968 (Discs 1-3) (1991) [FLAC]\Disc 2\07 - The Tonettes - Teardrop Sea.wav
Pre-gap length 0:00:02.63
Peak level 70.5 %
Track quality 100.0 %
Test CRC F73C1498
Copy CRC F73C1498
Copy OK
Track 8
Filename C:\FLAC\VA - The Complete Stax Volt Singles 1959-1968 (Discs 1-3) (1991) [FLAC]\Disc 2\08 - Rufus Thomas - The Dog.wav
Pre-gap length 0:00:03.09
Peak level 100.0 %
Track quality 100.0 %
Test CRC 34F39A73
Copy CRC 34F39A73
Copy OK
Track 9
Filename C:\FLAC\VA - The Complete Stax Volt Singles 1959-1968 (Discs 1-3) (1991) [FLAC]\Disc 2\09 - Booker T. & The MGs - Jelly Bread.wav
Pre-gap length 0:00:03.11
Peak level 99.8 %
Track quality 100.0 %
Test CRC 45BD3E95
Copy CRC 45BD3E95
Copy OK
Track 10
Filename C:\FLAC\VA - The Complete Stax Volt Singles 1959-1968 (Discs 1-3) (1991) [FLAC]\Disc 2\10 - William Bell - I Told You So.wav
Pre-gap length 0:00:03.23
Peak level 81.1 %
Track quality 99.9 %
Test CRC DADA49A0
Copy CRC DADA49A0
Copy OK
Track 11
Filename C:\FLAC\VA - The Complete Stax Volt Singles 1959-1968 (Discs 1-3) (1991) [FLAC]\Disc 2\11 - Mar-Keys - Bo-Time.wav
Pre-gap length 0:00:03.27
Peak level 74.2 %
Track quality 100.0 %
Test CRC EA5CB71C
Copy CRC EA5CB71C
Copy OK
Track 12
Filename C:\FLAC\VA - The Complete Stax Volt Singles 1959-1968 (Discs 1-3) (1991) [FLAC]\Disc 2\12 - Booker T. & The MGs - Home Grown.wav
Pre-gap length 0:00:03.19
Peak level 89.4 %
Track quality 100.0 %
Test CRC 5D0504FB
Copy CRC 5D0504FB
Copy OK
Track 13
Filename C:\FLAC\VA - The Complete Stax Volt Singles 1959-1968 (Discs 1-3) (1991) [FLAC]\Disc 2\13 - Deanie Parker & The Valadors - My Imaginary Guy.wav
Pre-gap length 0:00:03.28
Peak level 75.4 %
Track quality 100.0 %
Test CRC F0A0EA11
Copy CRC F0A0EA11
Copy OK
Track 14
Filename C:\FLAC\VA - The Complete Stax Volt Singles 1959-1968 (Discs 1-3) (1991) [FLAC]\Disc 2\14 - William Bell - Just As I Thought.wav
Pre-gap length 0:00:02.15
Peak level 81.2 %
Track quality 100.0 %
Test CRC D03C8CB5
Copy CRC D03C8CB5
Copy OK
Track 15
Filename C:\FLAC\VA - The Complete Stax Volt Singles 1959-1968 (Discs 1-3) (1991) [FLAC]\Disc 2\15 - Carla Thomas - What A Fool I've Been.wav
Pre-gap length 0:00:03.20
Peak level 72.6 %
Track quality 100.0 %
Test CRC 5A67618F
Copy CRC 5A67618F
Copy OK
Track 16
Filename C:\FLAC\VA - The Complete Stax Volt Singles 1959-1968 (Discs 1-3) (1991) [FLAC]\Disc 2\16 - Eddie Kirk - The Hawg, Part One.wav
Pre-gap length 0:00:03.39
Peak level 92.3 %
Track quality 100.0 %
Test CRC 65718E95
Copy CRC 65718E95
Copy OK
Track 17
Filename C:\FLAC\VA - The Complete Stax Volt Singles 1959-1968 (Discs 1-3) (1991) [FLAC]\Disc 2\17 - Oscar Mack - Don't Be Afraid Of Love.wav
Pre-gap length 0:00:03.45
Peak level 100.0 %
Track quality 100.0 %
Test CRC E46E4FC6
Copy CRC E46E4FC6
Copy OK
Track 18
Filename C:\FLAC\VA - The Complete Stax Volt Singles 1959-1968 (Discs 1-3) (1991) [FLAC]\Disc 2\18 - Cheryl & Pam Johnson - That's My Guy.wav
Pre-gap length 0:00:02.50
Peak level 76.6 %
Track quality 100.0 %
Test CRC A637AFDB
Copy CRC A637AFDB
Copy OK
Track 19
Filename C:\FLAC\VA - The Complete Stax Volt Singles 1959-1968 (Discs 1-3) (1991) [FLAC]\Disc 2\19 - Booker T. & The MGs - Chinese Checkers.wav
Pre-gap length 0:00:01.55
Peak level 97.2 %
Track quality 100.0 %
Test CRC 9B9E5547
Copy CRC 9B9E5547
Copy OK
Track 20
Filename C:\FLAC\VA - The Complete Stax Volt Singles 1959-1968 (Discs 1-3) (1991) [FLAC]\Disc 2\20 - William Bell - Somebody Mentioned Your Name.wav
Pre-gap length 0:00:02.70
Peak level 81.2 %
Track quality 100.0 %
Test CRC A6A7B5D2
Copy CRC A6A7B5D2
Copy OK
Track 21
Filename C:\FLAC\VA - The Complete Stax Volt Singles 1959-1968 (Discs 1-3) (1991) [FLAC]\Disc 2\21 - Bobby Marchan - What Can I Do.wav
Pre-gap length 0:00:02.26
Peak level 81.7 %
Track quality 100.0 %
Test CRC D056168E
Copy CRC D056168E
Copy OK
Track 22
Filename C:\FLAC\VA - The Complete Stax Volt Singles 1959-1968 (Discs 1-3) (1991) [FLAC]\Disc 2\22 - Otis Redding - That's What My Heart Needs.wav
Pre-gap length 0:00:02.70
Peak level 72.6 %
Track quality 100.0 %
Test CRC 87242652
Copy CRC 87242652
Copy OK
Track 23
Filename C:\FLAC\VA - The Complete Stax Volt Singles 1959-1968 (Discs 1-3) (1991) [FLAC]\Disc 2\23 - The Astors - What Can It Be.wav
Pre-gap length 0:00:03.04
Peak level 82.9 %
Track quality 100.0 %
Test CRC 2F00F28C
Copy CRC 2F00F28C
Copy OK
Track 24
Filename C:\FLAC\VA - The Complete Stax Volt Singles 1959-1968 (Discs 1-3) (1991) [FLAC]\Disc 2\24 - Billy & The King Bees - Bango.wav
Pre-gap length 0:00:02.40
Peak level 94.0 %
Track quality 100.0 %
Test CRC 63023D1E
Copy CRC 63023D1E
Copy OK
Track 25
Filename C:\FLAC\VA - The Complete Stax Volt Singles 1959-1968 (Discs 1-3) (1991) [FLAC]\Disc 2\25 - Eddie Kirk - Them Bones.wav
Pre-gap length 0:00:02.38
Peak level 88.7 %
Track quality 100.0 %
Test CRC B0DE56A5
Copy CRC B0DE56A5
Copy OK
Track 26
Filename C:\FLAC\VA - The Complete Stax Volt Singles 1959-1968 (Discs 1-3) (1991) [FLAC]\Disc 2\26 - Rufus Thomas - Walking The Dog.wav
Pre-gap length 0:00:03.18
Peak level 88.9 %
Track quality 99.9 %
Test CRC 0B3B8839
Copy CRC 0B3B8839
Copy OK
Track 27
Filename C:\FLAC\VA - The Complete Stax Volt Singles 1959-1968 (Discs 1-3) (1991) [FLAC]\Disc 2\27 - William Bell - I'll Show You.wav
Pre-gap length 0:00:02.65
Peak level 89.5 %
Track quality 100.0 %
Test CRC 150958C4
Copy CRC 150958C4
Copy OK
No errors occured
End of status report
 
CUE
PERFORMER "Various"
TITLE "The Complete Stax/Volt Singles: 1959-1968 (Disc 2)"
FILE "01 - Booker T. & The MGs - Green Onions.wav" WAVE
TRACK 01 AUDIO
TITLE "Booker T. & The MGs - Green Onions"
PERFORMER "Booker T. & The MGs - Green Onions"
INDEX 01 00:00:00
TRACK 02 AUDIO
TITLE "Booker T. & The MGs - Behave Yourself"
PERFORMER "Booker T. & The MGs - Behave Yourself"
INDEX 00 02:52:47
FILE "02 - Booker T. & The MGs - Behave Yourself.wav" WAVE
INDEX 01 00:00:00
TRACK 03 AUDIO
TITLE "William Bell - Any Other Way"
PERFORMER "William Bell - Any Other Way"
INDEX 00 03:51:22
FILE "03 - William Bell - Any Other Way.wav" WAVE
INDEX 01 00:00:00
TRACK 04 AUDIO
TITLE "Carla Thomas - I'll Bring It Home To You"
PERFORMER "Carla Thomas - I'll Bring It Home To You"
INDEX 00 02:28:46
FILE "04 - Carla Thomas - I'll Bring It Home To You.wav" WAVE
INDEX 01 00:00:00
TRACK 05 AUDIO
TITLE "Mar-Keys - Sack-O-Woe"
PERFORMER "Mar-Keys - Sack-O-Woe"
INDEX 00 03:04:00
FILE "05 - Mar-Keys - Sack-O-Woe.wav" WAVE
INDEX 01 00:00:00
TRACK 06 AUDIO
TITLE "Otis Redding - These Arms Of Mine"
PERFORMER "Otis Redding - These Arms Of Mine"
INDEX 00 02:30:66
FILE "06 - Otis Redding - These Arms Of Mine.wav" WAVE
INDEX 01 00:00:00
TRACK 07 AUDIO
TITLE "The Tonettes - Teardrop Sea"
PERFORMER "The Tonettes - Teardrop Sea"
INDEX 00 02:30:45
FILE "07 - The Tonettes - Teardrop Sea.wav" WAVE
INDEX 01 00:00:00
TRACK 08 AUDIO
TITLE "Rufus Thomas - The Dog"
PERFORMER "Rufus Thomas - The Dog"
INDEX 00 02:28:11
FILE "08 - Rufus Thomas - The Dog.wav" WAVE
INDEX 01 00:00:00
TRACK 09 AUDIO
TITLE "Booker T. & The MGs - Jelly Bread"
PERFORMER "Booker T. & The MGs - Jelly Bread"
INDEX 00 02:33:71
FILE "09 - Booker T. & The MGs - Jelly Bread.wav" WAVE
INDEX 01 00:00:00
TRACK 10 AUDIO
TITLE "William Bell - I Told You So"
PERFORMER "William Bell - I Told You So"
INDEX 00 02:30:05
FILE "10 - William Bell - I Told You So.wav" WAVE
INDEX 01 00:00:00
TRACK 11 AUDIO
TITLE "Mar-Keys - Bo-Time"
PERFORMER "Mar-Keys - Bo-Time"
INDEX 00 02:29:30
FILE "11 - Mar-Keys - Bo-Time.wav" WAVE
INDEX 01 00:00:00
TRACK 12 AUDIO
TITLE "Booker T. & The MGs - Home Grown"
PERFORMER "Booker T. & The MGs - Home Grown"
INDEX 00 02:42:41
FILE "12 - Booker T. & The MGs - Home Grown.wav" WAVE
INDEX 01 00:00:00
TRACK 13 AUDIO
TITLE "Deanie Parker & The Valadors - My Imaginary Guy"
PERFORMER "Deanie Parker & The Valadors - My Imaginary Guy"
INDEX 00 03:12:45
FILE "13 - Deanie Parker & The Valadors - My Imaginary Guy.wav" WAVE
INDEX 01 00:00:00
TRACK 14 AUDIO
TITLE "William Bell - Just As I Thought"
PERFORMER "William Bell - Just As I Thought"
INDEX 00 02:41:05
FILE "14 - William Bell - Just As I Thought.wav" WAVE
INDEX 01 00:00:00
TRACK 15 AUDIO
TITLE "Carla Thomas - What A Fool I've Been"
PERFORMER "Carla Thomas - What A Fool I've Been"
INDEX 00 02:58:70
FILE "15 - Carla Thomas - What A Fool I've Been.wav" WAVE
INDEX 01 00:00:00
TRACK 16 AUDIO
TITLE "Eddie Kirk - The Hawg, Part One"
PERFORMER "Eddie Kirk - The Hawg, Part One"
INDEX 00 02:14:28
FILE "16 - Eddie Kirk - The Hawg, Part One.wav" WAVE
INDEX 01 00:00:00
TRACK 17 AUDIO
TITLE "Oscar Mack - Don't Be Afraid Of Love"
PERFORMER "Oscar Mack - Don't Be Afraid Of Love"
INDEX 00 02:50:20
FILE "17 - Oscar Mack - Don't Be Afraid Of Love.wav" WAVE
INDEX 01 00:00:00
TRACK 18 AUDIO
TITLE "Cheryl & Pam Johnson - That's My Guy"
PERFORMER "Cheryl & Pam Johnson - That's My Guy"
INDEX 00 02:30:58
FILE "18 - Cheryl & Pam Johnson - That's My Guy.wav" WAVE
INDEX 01 00:00:00
TRACK 19 AUDIO
TITLE "Booker T. & The MGs - Chinese Checkers"
PERFORMER "Booker T. & The MGs - Chinese Checkers"
INDEX 00 02:08:02
FILE "19 - Booker T. & The MGs - Chinese Checkers.wav" WAVE
INDEX 01 00:00:00
TRACK 20 AUDIO
TITLE "William Bell - Somebody Mentioned Your Name"
PERFORMER "William Bell - Somebody Mentioned Your Name"
INDEX 00 02:26:73
FILE "20 - William Bell - Somebody Mentioned Your Name.wav" WAVE
INDEX 01 00:00:00
TRACK 21 AUDIO
TITLE "Bobby Marchan - What Can I Do"
PERFORMER "Bobby Marchan - What Can I Do"
INDEX 00 03:03:01
FILE "21 - Bobby Marchan - What Can I Do.wav" WAVE
INDEX 01 00:00:00
TRACK 22 AUDIO
TITLE "Otis Redding - That's What My Heart Needs"
PERFORMER "Otis Redding - That's What My Heart Needs"
INDEX 00 02:42:48
FILE "22 - Otis Redding - That's What My Heart Needs.wav" WAVE
INDEX 01 00:00:00
TRACK 23 AUDIO
TITLE "The Astors - What Can It Be"
PERFORMER "The Astors - What Can It Be"
INDEX 00 02:39:18
FILE "23 - The Astors - What Can It Be.wav" WAVE
INDEX 01 00:00:00
TRACK 24 AUDIO
TITLE "Billy & The King Bees - Bango"
PERFORMER "Billy & The King Bees - Bango"
INDEX 00 02:17:30
FILE "24 - Billy & The King Bees - Bango.wav" WAVE
INDEX 01 00:00:00
TRACK 25 AUDIO
TITLE "Eddie Kirk - Them Bones"
PERFORMER "Eddie Kirk - Them Bones"
INDEX 00 02:17:00
FILE "25 - Eddie Kirk - Them Bones.wav" WAVE
INDEX 01 00:00:00
TRACK 26 AUDIO
TITLE "Rufus Thomas - Walking The Dog"
PERFORMER "Rufus Thomas - Walking The Dog"
INDEX 00 02:20:07
FILE "26 - Rufus Thomas - Walking The Dog.wav" WAVE
INDEX 01 00:00:00
TRACK 27 AUDIO
TITLE "William Bell - I'll Show You"
PERFORMER "William Bell - I'll Show You"
INDEX 00 02:34:40
FILE "27 - William Bell - I'll Show You.wav" WAVE
INDEX 01 00:00:00
 
CD 3
Продолжительность: 73 min 27 sec
1. Otis Redding - Pain In My Heart (2:24)
2. Carla Thomas - Gee Whiz It's Christmas (2:47)
3. Booker T. & The MGs - Mo' Onions (2:35)
4. Floyd Newman - Frog Stomp (2:14)
5. Rufus Thomas - Can Your Monkey Do The Dog (2:28)
6. Bobby Marchan - You Won't Do Right (2:34)
7. The Drapels - Wondering (When My Love Is Coming Home) (2:18)
8. Deanie Parker - Each Step I Take (2:51)
9. The Van-Dells - The Honey Dripper (2:07)
10. William Bell - Who Will It Be Tomorrow (2:25)
11. Otis Redding - Come To Me (2:46)
12. Otis Redding - Don't Leave Me This Way (2:58)
13. Eddie Jefferson - I Don't Want You Anymore (3:00)
14. The Cobras - Restless (2:26)
15. Rufus Thomas - Somebody Stole My Dog (2:40)
16. Barbara & The Browns - Big Party (2:42)
17. Rufus & Carla - That's Really Some Good (1:57)
18. Rufus & Carla - Night Time Is The Right Time (2:40)
19. Otis Redding - Security (2:37)
20. Oscar Mack - Dream Girl (3:01)
21. Dorothy Williams - Closer To My Baby (2:28)
22. Carla Thomas - I've Got No Time To Lose (3:01)
23. The Drapels - Young Man (2:35)
24. Booker T. & The MGs - Soul Dressing (3:00)
25. Wendy Rene - After Laughter (Comes Tears) (3:02)
26. Ivory Joe Hunter - Can't Explain How It Happened (2:44)
27. Mar-Keys - Bush Bash (2:32)
28. The Fleets - Please Return To Me (2:35)
 
Log EAC
EAC extraction logfile from 23. October 2005, 18:13 for CD
Various / The Complete Stax/Volt Singles: 1959-1968 (disc 3)
Used drive : LITE-ON DVDRW SOHW-1633S Adapter: 0 ID: 0
Read mode : Secure with NO C2, accurate stream, disable cache
Read offset correction : 12
Overread into Lead-In and Lead-Out : No
Used output format : Internal WAV Routines
44.100 Hz; 16 Bit; Stereo
Other options :
Fill up missing offset samples with silence : Yes
Delete leading and trailing silent blocks : No
Installed external ASPI interface
Track 1
Filename C:\FLAC\VA - The Complete Stax Volt Singles 1959-1968 (Discs 1-3) (1991) [FLAC]\Disc 3\01 - Otis Redding - Pain In My Heart.wav
Pre-gap length 0:00:02.32
Peak level 86.3 %
Track quality 100.0 %
Test CRC C1FC7E4B
Copy CRC C1FC7E4B
Copy OK
Track 2
Filename C:\FLAC\VA - The Complete Stax Volt Singles 1959-1968 (Discs 1-3) (1991) [FLAC]\Disc 3\02 - Carla Thomas - Gee Whiz It's Christmas.wav
Pre-gap length 0:00:02.22
Peak level 74.7 %
Track quality 100.0 %
Test CRC 216EA0D0
Copy CRC 216EA0D0
Copy OK
Track 3
Filename C:\FLAC\VA - The Complete Stax Volt Singles 1959-1968 (Discs 1-3) (1991) [FLAC]\Disc 3\03 - Booker T. & The MGs - Mo' Onions.wav
Pre-gap length 0:00:02.55
Peak level 100.0 %
Track quality 100.0 %
Test CRC E7EF0CA1
Copy CRC E7EF0CA1
Copy OK
Track 4
Filename C:\FLAC\VA - The Complete Stax Volt Singles 1959-1968 (Discs 1-3) (1991) [FLAC]\Disc 3\04 - Floyd Newman - Frog Stomp.wav
Pre-gap length 0:00:02.23
Peak level 85.7 %
Track quality 100.0 %
Test CRC CE755A2D
Copy CRC CE755A2D
Copy OK
Track 5
Filename C:\FLAC\VA - The Complete Stax Volt Singles 1959-1968 (Discs 1-3) (1991) [FLAC]\Disc 3\05 - Rufus Thomas - Can Your Monkey Do The Dog.wav
Pre-gap length 0:00:02.68
Peak level 91.7 %
Track quality 100.0 %
Test CRC DAE86717
Copy CRC DAE86717
Copy OK
Track 6
Filename C:\FLAC\VA - The Complete Stax Volt Singles 1959-1968 (Discs 1-3) (1991) [FLAC]\Disc 3\06 - Bobby Marchan - You Won't Do Right.wav
Pre-gap length 0:00:02.06
Peak level 69.5 %
Track quality 99.9 %
Test CRC F79B838A
Copy CRC F79B838A
Copy OK
Track 7
Filename C:\FLAC\VA - The Complete Stax Volt Singles 1959-1968 (Discs 1-3) (1991) [FLAC]\Disc 3\07 - The Drapels - Wondering (When My Love Is Coming Home).wav
Pre-gap length 0:00:01.50
Peak level 95.2 %
Track quality 100.0 %
Test CRC 4F7EC636
Copy CRC 4F7EC636
Copy OK
Track 8
Filename C:\FLAC\VA - The Complete Stax Volt Singles 1959-1968 (Discs 1-3) (1991) [FLAC]\Disc 3\08 - Deanie Parker - Each Step I Take.wav
Pre-gap length 0:00:01.53
Peak level 85.9 %
Track quality 100.0 %
Test CRC C7D11494
Copy CRC C7D11494
Copy OK
Track 9
Filename C:\FLAC\VA - The Complete Stax Volt Singles 1959-1968 (Discs 1-3) (1991) [FLAC]\Disc 3\09 - The Van-Dells - The Honey Dripper.wav
Pre-gap length 0:00:02.34
Peak level 100.0 %
Track quality 99.9 %
Test CRC B0CC21C5
Copy CRC B0CC21C5
Copy OK
Track 10
Filename C:\FLAC\VA - The Complete Stax Volt Singles 1959-1968 (Discs 1-3) (1991) [FLAC]\Disc 3\10 - William Bell - Who Will It Be Tomorrow.wav
Pre-gap length 0:00:03.52
Peak level 72.9 %
Track quality 100.0 %
Test CRC F18652FD
Copy CRC F18652FD
Copy OK
Track 11
Filename C:\FLAC\VA - The Complete Stax Volt Singles 1959-1968 (Discs 1-3) (1991) [FLAC]\Disc 3\11 - Otis Redding - Come To Me.wav
Pre-gap length 0:00:02.13
Peak level 90.0 %
Track quality 99.9 %
Test CRC D1B91955
Copy CRC D1B91955
Copy OK
Track 12
Filename C:\FLAC\VA - The Complete Stax Volt Singles 1959-1968 (Discs 1-3) (1991) [FLAC]\Disc 3\12 - Otis Redding - Don't Leave Me This Way.wav
Pre-gap length 0:00:01.25
Peak level 96.5 %
Track quality 100.0 %
Test CRC 5E7AAB31
Copy CRC 5E7AAB31
Copy OK
Track 13
Filename C:\FLAC\VA - The Complete Stax Volt Singles 1959-1968 (Discs 1-3) (1991) [FLAC]\Disc 3\13 - Eddie Jefferson - I Don't Want You Anymore.wav
Pre-gap length 0:00:01.50
Peak level 80.2 %
Track quality 99.9 %
Test CRC A2324CEB
Copy CRC A2324CEB
Copy OK
Track 14
Filename C:\FLAC\VA - The Complete Stax Volt Singles 1959-1968 (Discs 1-3) (1991) [FLAC]\Disc 3\14 - The Cobras - Restless.wav
Pre-gap length 0:00:03.00
Peak level 79.2 %
Track quality 100.0 %
Test CRC 504E2B07
Copy CRC 504E2B07
Copy OK
Track 15
Filename C:\FLAC\VA - The Complete Stax Volt Singles 1959-1968 (Discs 1-3) (1991) [FLAC]\Disc 3\15 - Rufus Thomas - Somebody Stole My Dog.wav
Pre-gap length 0:00:02.25
Peak level 90.0 %
Track quality 100.0 %
Test CRC 9C706730
Copy CRC 9C706730
Copy OK
Track 16
Filename C:\FLAC\VA - The Complete Stax Volt Singles 1959-1968 (Discs 1-3) (1991) [FLAC]\Disc 3\16 - Barbara & The Browns - Big Party.wav
Pre-gap length 0:00:02.42
Peak level 88.7 %
Track quality 100.0 %
Test CRC C8926B75
Copy CRC C8926B75
Copy OK
Track 17
Filename C:\FLAC\VA - The Complete Stax Volt Singles 1959-1968 (Discs 1-3) (1991) [FLAC]\Disc 3\17 - Rufus & Carla - That's Really Some Good.wav
Pre-gap length 0:00:02.32
Peak level 91.6 %
Track quality 99.9 %
Test CRC A9BA8939
Copy CRC A9BA8939
Copy OK
Track 18
Filename C:\FLAC\VA - The Complete Stax Volt Singles 1959-1968 (Discs 1-3) (1991) [FLAC]\Disc 3\18 - Rufus & Carla - Night Time Is The Right Time.wav
Pre-gap length 0:00:02.39
Peak level 80.7 %
Track quality 100.0 %
Test CRC 8CEB1336
Copy CRC 8CEB1336
Copy OK
Track 19
Filename C:\FLAC\VA - The Complete Stax Volt Singles 1959-1968 (Discs 1-3) (1991) [FLAC]\Disc 3\19 - Otis Redding - Security.wav
Pre-gap length 0:00:03.05
Peak level 71.5 %
Track quality 99.9 %
Test CRC 01986D1C
Copy CRC 01986D1C
Copy OK
Track 20
Filename C:\FLAC\VA - The Complete Stax Volt Singles 1959-1968 (Discs 1-3) (1991) [FLAC]\Disc 3\20 - Oscar Mack - Dream Girl.wav
Pre-gap length 0:00:01.49
Peak level 81.4 %
Track quality 100.0 %
Test CRC F2DAE001
Copy CRC F2DAE001
Copy OK
Track 21
Filename C:\FLAC\VA - The Complete Stax Volt Singles 1959-1968 (Discs 1-3) (1991) [FLAC]\Disc 3\21 - Dorothy Williams - Closer To My Baby.wav
Pre-gap length 0:00:01.43
Peak level 81.8 %
Track quality 100.0 %
Test CRC 7F1C6EF6
Copy CRC 7F1C6EF6
Copy OK
Track 22
Filename C:\FLAC\VA - The Complete Stax Volt Singles 1959-1968 (Discs 1-3) (1991) [FLAC]\Disc 3\22 - Carla Thomas - I've Got No Time To Lose.wav
Pre-gap length 0:00:01.22
Peak level 82.9 %
Track quality 99.9 %
Test CRC 481F0FE2
Copy CRC 481F0FE2
Copy OK
Track 23
Filename C:\FLAC\VA - The Complete Stax Volt Singles 1959-1968 (Discs 1-3) (1991) [FLAC]\Disc 3\23 - The Drapels - Young Man.wav
Pre-gap length 0:00:02.07
Peak level 84.8 %
Track quality 100.0 %
Test CRC 6DBC63CA
Copy CRC 6DBC63CA
Copy OK
Track 24
Filename C:\FLAC\VA - The Complete Stax Volt Singles 1959-1968 (Discs 1-3) (1991) [FLAC]\Disc 3\24 - Booker T. & The MGs - Soul Dressing.wav
Pre-gap length 0:00:02.16
Peak level 99.9 %
Track quality 100.0 %
Test CRC 288168D7
Copy CRC 288168D7
Copy OK
Track 25
Filename C:\FLAC\VA - The Complete Stax Volt Singles 1959-1968 (Discs 1-3) (1991) [FLAC]\Disc 3\25 - Wendy Rene - After Laughter (Comes Tears).wav
Pre-gap length 0:00:02.57
Peak level 88.6 %
Track quality 100.0 %
Test CRC 238F2966
Copy CRC 238F2966
Copy OK
Track 26
Filename C:\FLAC\VA - The Complete Stax Volt Singles 1959-1968 (Discs 1-3) (1991) [FLAC]\Disc 3\26 - Ivory Joe Hunter - Can't Explain How It Happened.wav
Pre-gap length 0:00:02.45
Peak level 81.9 %
Track quality 100.0 %
Test CRC 37016861
Copy CRC 37016861
Copy OK
Track 27
Filename C:\FLAC\VA - The Complete Stax Volt Singles 1959-1968 (Discs 1-3) (1991) [FLAC]\Disc 3\27 - Mar-Keys - Bush Bash.wav
Pre-gap length 0:00:02.30
Peak level 100.0 %
Track quality 99.9 %
Test CRC 07A45D84
Copy CRC 07A45D84
Copy OK
Track 28
Filename C:\FLAC\VA - The Complete Stax Volt Singles 1959-1968 (Discs 1-3) (1991) [FLAC]\Disc 3\28 - The Fleets - Please Return To Me.wav
Pre-gap length 0:00:00.54
Peak level 87.1 %
Track quality 100.0 %
Test CRC 83771478
Copy CRC 83771478
Copy OK
No errors occured
End of status report
 
CUE
PERFORMER "Various"
TITLE "The Complete Stax/Volt Singles: 1959-1968 (disc 3)"
FILE "01 - Otis Redding - Pain In My Heart.wav" WAVE
TRACK 01 AUDIO
TITLE "Otis Redding - Pain In My Heart"
PERFORMER "Otis Redding - Pain In My Heart"
INDEX 01 00:00:00
TRACK 02 AUDIO
TITLE "Carla Thomas - Gee Whiz It's Christmas"
PERFORMER "Carla Thomas - Gee Whiz It's Christmas"
INDEX 00 02:22:48
FILE "02 - Carla Thomas - Gee Whiz It's Christmas.wav" WAVE
INDEX 01 00:00:00
TRACK 03 AUDIO
TITLE "Booker T. & The MGs - Mo' Onions"
PERFORMER "Booker T. & The MGs - Mo' Onions"
INDEX 00 02:44:40
FILE "03 - Booker T. & The MGs - Mo' Onions.wav" WAVE
INDEX 01 00:00:00
TRACK 04 AUDIO
TITLE "Floyd Newman - Frog Stomp"
PERFORMER "Floyd Newman - Frog Stomp"
INDEX 00 02:33:00
FILE "04 - Floyd Newman - Frog Stomp.wav" WAVE
INDEX 01 00:00:00
TRACK 05 AUDIO
TITLE "Rufus Thomas - Can Your Monkey Do The Dog"
PERFORMER "Rufus Thomas - Can Your Monkey Do The Dog"
INDEX 00 02:12:02
FILE "05 - Rufus Thomas - Can Your Monkey Do The Dog.wav" WAVE
INDEX 01 00:00:00
TRACK 06 AUDIO
TITLE "Bobby Marchan - You Won't Do Right"
PERFORMER "Bobby Marchan - You Won't Do Right"
INDEX 00 02:25:71
FILE "06 - Bobby Marchan - You Won't Do Right.wav" WAVE
INDEX 01 00:00:00
TRACK 07 AUDIO
TITLE "The Drapels - Wondering (When My Love Is Coming Home)"
PERFORMER "The Drapels - Wondering (When My Love Is Coming Home)"
INDEX 00 02:33:03
FILE "07 - The Drapels - Wondering (When My Love Is Coming Home).wav" WAVE
INDEX 01 00:00:00
TRACK 08 AUDIO
TITLE "Deanie Parker - Each Step I Take"
PERFORMER "Deanie Parker - Each Step I Take"
INDEX 00 02:16:22
FILE "08 - Deanie Parker - Each Step I Take.wav" WAVE
INDEX 01 00:00:00
TRACK 09 AUDIO
TITLE "The Van-Dells - The Honey Dripper"
PERFORMER "The Van-Dells - The Honey Dripper"
INDEX 00 02:49:03
FILE "09 - The Van-Dells - The Honey Dripper.wav" WAVE
INDEX 01 00:00:00
TRACK 10 AUDIO
TITLE "William Bell - Who Will It Be Tomorrow"
PERFORMER "William Bell - Who Will It Be Tomorrow"
INDEX 00 02:03:58
FILE "10 - William Bell - Who Will It Be Tomorrow.wav" WAVE
INDEX 01 00:00:00
TRACK 11 AUDIO
TITLE "Otis Redding - Come To Me"
PERFORMER "Otis Redding - Come To Me"
INDEX 00 02:23:30
FILE "11 - Otis Redding - Come To Me.wav" WAVE
INDEX 01 00:00:00
TRACK 12 AUDIO
TITLE "Otis Redding - Don't Leave Me This Way"
PERFORMER "Otis Redding - Don't Leave Me This Way"
INDEX 00 02:45:27
FILE "12 - Otis Redding - Don't Leave Me This Way.wav" WAVE
INDEX 01 00:00:00
TRACK 13 AUDIO
TITLE "Eddie Jefferson - I Don't Want You Anymore"
PERFORMER "Eddie Jefferson - I Don't Want You Anymore"
INDEX 00 02:56:38
FILE "13 - Eddie Jefferson - I Don't Want You Anymore.wav" WAVE
INDEX 01 00:00:00
TRACK 14 AUDIO
TITLE "The Cobras - Restless"
PERFORMER "The Cobras - Restless"
INDEX 00 02:57:47
FILE "14 - The Cobras - Restless.wav" WAVE
INDEX 01 00:00:00
TRACK 15 AUDIO
TITLE "Rufus Thomas - Somebody Stole My Dog"
PERFORMER "Rufus Thomas - Somebody Stole My Dog"
INDEX 00 02:24:35
FILE "15 - Rufus Thomas - Somebody Stole My Dog.wav" WAVE
INDEX 01 00:00:00
TRACK 16 AUDIO
TITLE "Barbara & The Browns - Big Party"
PERFORMER "Barbara & The Browns - Big Party"
INDEX 00 02:37:73
FILE "16 - Barbara & The Browns - Big Party.wav" WAVE
INDEX 01 00:00:00
TRACK 17 AUDIO
TITLE "Rufus & Carla - That's Really Some Good"
PERFORMER "Rufus & Carla - That's Really Some Good"
INDEX 00 02:39:73
FILE "17 - Rufus & Carla - That's Really Some Good.wav" WAVE
INDEX 01 00:00:00
TRACK 18 AUDIO
TITLE "Rufus & Carla - Night Time Is The Right Time"
PERFORMER "Rufus & Carla - Night Time Is The Right Time"
INDEX 00 01:54:51
FILE "18 - Rufus & Carla - Night Time Is The Right Time.wav" WAVE
INDEX 01 00:00:00
TRACK 19 AUDIO
TITLE "Otis Redding - Security"
PERFORMER "Otis Redding - Security"
INDEX 00 02:37:43
FILE "19 - Otis Redding - Security.wav" WAVE
INDEX 01 00:00:00
TRACK 20 AUDIO
TITLE "Oscar Mack - Dream Girl"
PERFORMER "Oscar Mack - Dream Girl"
INDEX 00 02:35:53
FILE "20 - Oscar Mack - Dream Girl.wav" WAVE
INDEX 01 00:00:00
TRACK 21 AUDIO
TITLE "Dorothy Williams - Closer To My Baby"
PERFORMER "Dorothy Williams - Closer To My Baby"
INDEX 00 02:59:65
FILE "21 - Dorothy Williams - Closer To My Baby.wav" WAVE
INDEX 01 00:00:00
TRACK 22 AUDIO
TITLE "Carla Thomas - I've Got No Time To Lose"
PERFORMER "Carla Thomas - I've Got No Time To Lose"
INDEX 00 02:27:28
FILE "22 - Carla Thomas - I've Got No Time To Lose.wav" WAVE
INDEX 01 00:00:00
TRACK 23 AUDIO
TITLE "The Drapels - Young Man"
PERFORMER "The Drapels - Young Man"
INDEX 00 02:59:15
FILE "23 - The Drapels - Young Man.wav" WAVE
INDEX 01 00:00:00
TRACK 24 AUDIO
TITLE "Booker T. & The MGs - Soul Dressing"
PERFORMER "Booker T. & The MGs - Soul Dressing"
INDEX 00 02:33:57
FILE "24 - Booker T. & The MGs - Soul Dressing.wav" WAVE
INDEX 01 00:00:00
TRACK 25 AUDIO
TITLE "Wendy Rene - After Laughter (Comes Tears)"
PERFORMER "Wendy Rene - After Laughter (Comes Tears)"
INDEX 00 02:57:38
FILE "25 - Wendy Rene - After Laughter (Comes Tears).wav" WAVE
INDEX 01 00:00:00
TRACK 26 AUDIO
TITLE "Ivory Joe Hunter - Can't Explain How It Happened"
PERFORMER "Ivory Joe Hunter - Can't Explain How It Happened"
INDEX 00 02:59:65
FILE "26 - Ivory Joe Hunter - Can't Explain How It Happened.wav" WAVE
INDEX 01 00:00:00
TRACK 27 AUDIO
TITLE "Mar-Keys - Bush Bash"
PERFORMER "Mar-Keys - Bush Bash"
INDEX 00 02:42:15
FILE "27 - Mar-Keys - Bush Bash.wav" WAVE
INDEX 01 00:00:00
TRACK 28 AUDIO
TITLE "The Fleets - Please Return To Me"
PERFORMER "The Fleets - Please Return To Me"
INDEX 00 02:31:53
FILE "28 - The Fleets - Please Return To Me.wav" WAVE
INDEX 01 00:00:00
 
CD 4
Продолжительность: 70 min 40 sec
1. Rufus Thomas - Jump Back (2:22)
2. Otis Redding - Chained And Bound (2:41)
3. Barbara & The Browns - In My Heart (2:52)
4. Johnny Jenkins - Spunky (2:21)
5. Wendy Rene - Bar B-Q (2:32)
6. Mad Lads - The Sidewalk Surf (2:24)
7. Booker T. & The MGs - Can't Be Still (2:02)
8. Carla Thomas - A Woman's Love (2:56)
9. Baracudas - Yank Me (Doodle) (2:28)
10. Otis Redding - That's How Strong My Love Is (2:24)
11. Otis Redding - Mr. Pitiful (2:43)
12. Del-Rays - Don't Let Her Be Your Baby (2:37)
13. David Porter - Can't See You When I Want To (2:55)
14. Barbara & The Browns - My Lover (2:23)
15. The Admirals - Got You On My Mind (2:38)
16. Carla Thomas - How Do You Quit (Someone You Love) (2:55)
17. Gorgeous George - Biggest Fool In Town (2:48)
18. Mar-Keys - Banana Juice (2:25)
19. Rufus Thomas - Little Sally Walker (2:29)
20. Sam & Dave - A Place Nobody Can Find (2:57)
21. Sam & Dave - Goodnight Baby (2:48)
22. Booker T. & The MGs - Boot-Leg (2:06)
23. Booker T. & The MGs - Outrage (2:38)
24. Otis Redding - I've Been Loving You Too Long (To Stop Now) (2:55)
25. Otis Redding - I'm Depending On You (2:30)
26. Astors - Candy (3:02)
27. Wendy Rene - Give You What I Got (2:49)
 
Log EAC
EAC extraction logfile from 24. October 2005, 1:14 for CD
Various / The Complete Stax/Volt Singles: 1959-1968 (disc 4)
Used drive : LITE-ON DVDRW SOHW-1633S Adapter: 0 ID: 0
Read mode : Secure with NO C2, accurate stream, disable cache
Read offset correction : 12
Overread into Lead-In and Lead-Out : No
Used output format : Internal WAV Routines
44.100 Hz; 16 Bit; Stereo
Other options :
Fill up missing offset samples with silence : Yes
Delete leading and trailing silent blocks : No
Installed external ASPI interface
Track 1
Filename C:\FLAC\VA - The Complete Stax Volt Singles 1959-1968 (Discs 4-6) (1991) [FLAC]\Disc 4\01 - Rufus Thomas - Jump Back.wav
Pre-gap length 0:00:02.32
Peak level 100.0 %
Track quality 99.9 %
Test CRC A687E00B
Copy CRC A687E00B
Copy OK
Track 2
Filename C:\FLAC\VA - The Complete Stax Volt Singles 1959-1968 (Discs 4-6) (1991) [FLAC]\Disc 4\02 - Otis Redding - Chained And Bound.wav
Pre-gap length 0:00:02.65
Peak level 88.2 %
Track quality 99.9 %
Test CRC C057BBD7
Copy CRC C057BBD7
Copy OK
Track 3
Filename C:\FLAC\VA - The Complete Stax Volt Singles 1959-1968 (Discs 4-6) (1991) [FLAC]\Disc 4\03 - Barbara & The Browns - In My Heart.wav
Pre-gap length 0:00:02.60
Peak level 86.4 %
Track quality 100.0 %
Test CRC 58B93253
Copy CRC 58B93253
Copy OK
Track 4
Filename C:\FLAC\VA - The Complete Stax Volt Singles 1959-1968 (Discs 4-6) (1991) [FLAC]\Disc 4\04 - Johnny Jenkins - Spunky.wav
Pre-gap length 0:00:02.70
Peak level 69.9 %
Track quality 100.0 %
Test CRC 64CFA32B
Copy CRC 64CFA32B
Copy OK
Track 5
Filename C:\FLAC\VA - The Complete Stax Volt Singles 1959-1968 (Discs 4-6) (1991) [FLAC]\Disc 4\05 - Wendy Rene - Bar B-Q.wav
Pre-gap length 0:00:03.04
Peak level 100.0 %
Track quality 100.0 %
Test CRC 4FFD4D79
Copy CRC 4FFD4D79
Copy OK
Track 6
Filename C:\FLAC\VA - The Complete Stax Volt Singles 1959-1968 (Discs 4-6) (1991) [FLAC]\Disc 4\06 - Mad Lads - The Sidewalk Surf.wav
Pre-gap length 0:00:02.43
Peak level 96.8 %
Track quality 100.0 %
Test CRC A9048D31
Copy CRC A9048D31
Copy OK
Track 7
Filename C:\FLAC\VA - The Complete Stax Volt Singles 1959-1968 (Discs 4-6) (1991) [FLAC]\Disc 4\07 - Booker T. & The MGs - Can't Be Still.wav
Pre-gap length 0:00:02.18
Peak level 100.0 %
Track quality 100.0 %
Test CRC E9D6F8D3
Copy CRC E9D6F8D3
Copy OK
Track 8
Filename C:\FLAC\VA - The Complete Stax Volt Singles 1959-1968 (Discs 4-6) (1991) [FLAC]\Disc 4\08 - Carla Thomas - A Woman's Love.wav
Pre-gap length 0:00:03.38
Peak level 97.3 %
Track quality 100.0 %
Test CRC 02AF2333
Copy CRC 02AF2333
Copy OK
Track 9
Filename C:\FLAC\VA - The Complete Stax Volt Singles 1959-1968 (Discs 4-6) (1991) [FLAC]\Disc 4\09 - Baracudas - Yank Me (Doodle).wav
Pre-gap length 0:00:03.15
Peak level 93.2 %
Track quality 99.9 %
Test CRC 9790CD6E
Copy CRC 9790CD6E
Copy OK
Track 10
Filename C:\FLAC\VA - The Complete Stax Volt Singles 1959-1968 (Discs 4-6) (1991) [FLAC]\Disc 4\10 - Otis Redding - That's How Strong My Love Is.wav
Pre-gap length 0:00:01.60
Peak level 80.7 %
Track quality 100.0 %
Test CRC 2C673C66
Copy CRC 2C673C66
Copy OK
Track 11
Filename C:\FLAC\VA - The Complete Stax Volt Singles 1959-1968 (Discs 4-6) (1991) [FLAC]\Disc 4\11 - Otis Redding - Mr. Pitiful.wav
Pre-gap length 0:00:02.50
Peak level 98.9 %
Track quality 100.0 %
Test CRC 8CB0FD50
Copy CRC 8CB0FD50
Copy OK
Track 12
Filename C:\FLAC\VA - The Complete Stax Volt Singles 1959-1968 (Discs 4-6) (1991) [FLAC]\Disc 4\12 - Del-Rays - Don't Let Her Be Your Baby.wav
Pre-gap length 0:00:02.50
Peak level 99.9 %
Track quality 100.0 %
Test CRC E590DDA5
Copy CRC E590DDA5
Copy OK
Track 13
Filename C:\FLAC\VA - The Complete Stax Volt Singles 1959-1968 (Discs 4-6) (1991) [FLAC]\Disc 4\13 - David Porter - Can't See You When I Want To.wav
Pre-gap length 0:00:03.07
Peak level 99.8 %
Track quality 100.0 %
Test CRC 17EFB4D7
Copy CRC 17EFB4D7
Copy OK
Track 14
Filename C:\FLAC\VA - The Complete Stax Volt Singles 1959-1968 (Discs 4-6) (1991) [FLAC]\Disc 4\14 - Barbara & The Browns - My Lover.wav
Pre-gap length 0:00:02.47
Peak level 84.8 %
Track quality 100.0 %
Test CRC 17E2E4A1
Copy CRC 17E2E4A1
Copy OK
Track 15
Filename C:\FLAC\VA - The Complete Stax Volt Singles 1959-1968 (Discs 4-6) (1991) [FLAC]\Disc 4\15 - The Admirals - Got You On My Mind.wav
Pre-gap length 0:00:02.20
Peak level 94.4 %
Track quality 100.0 %
Test CRC 81113318
Copy CRC 81113318
Copy OK
Track 16
Filename C:\FLAC\VA - The Complete Stax Volt Singles 1959-1968 (Discs 4-6) (1991) [FLAC]\Disc 4\16 - Carla Thomas - How Do You Quit (Someone You Love).wav
Pre-gap length 0:00:02.41
Peak level 92.4 %
Track quality 100.0 %
Test CRC A33109CE
Copy CRC A33109CE
Copy OK
Track 17
Filename C:\FLAC\VA - The Complete Stax Volt Singles 1959-1968 (Discs 4-6) (1991) [FLAC]\Disc 4\17 - Gorgeous George - Biggest Fool In Town.wav
Pre-gap length 0:00:02.50
Peak level 100.0 %
Track quality 100.0 %
Test CRC 0EF20150
Copy CRC 0EF20150
Copy OK
Track 18
Filename C:\FLAC\VA - The Complete Stax Volt Singles 1959-1968 (Discs 4-6) (1991) [FLAC]\Disc 4\18 - Mar-Keys - Banana Juice.wav
Pre-gap length 0:00:02.23
Peak level 91.1 %
Track quality 100.0 %
Test CRC CD15F8E0
Copy CRC CD15F8E0
Copy OK
Track 19
Filename C:\FLAC\VA - The Complete Stax Volt Singles 1959-1968 (Discs 4-6) (1991) [FLAC]\Disc 4\19 - Rufus Thomas - Little Sally Walker.wav
Pre-gap length 0:00:02.42
Peak level 97.2 %
Track quality 100.0 %
Test CRC E2B3C038
Copy CRC E2B3C038
Copy OK
Track 20
Filename C:\FLAC\VA - The Complete Stax Volt Singles 1959-1968 (Discs 4-6) (1991) [FLAC]\Disc 4\20 - Sam & Dave - A Place Nobody Can Find.wav
Pre-gap length 0:00:02.41
Peak level 100.0 %
Track quality 100.0 %
Test CRC FDF66E75
Copy CRC FDF66E75
Copy OK
Track 21
Filename C:\FLAC\VA - The Complete Stax Volt Singles 1959-1968 (Discs 4-6) (1991) [FLAC]\Disc 4\21 - Sam & Dave - Goodnight Baby.wav
Pre-gap length 0:00:02.53
Peak level 97.0 %
Track quality 100.0 %
Test CRC 65B16B8B
Copy CRC 65B16B8B
Copy OK
Track 22
Filename C:\FLAC\VA - The Complete Stax Volt Singles 1959-1968 (Discs 4-6) (1991) [FLAC]\Disc 4\22 - Booker T. & The MGs - Boot-Leg.wav
Pre-gap length 0:00:03.45
Peak level 94.2 %
Track quality 100.0 %
Test CRC FEF538E0
Copy CRC FEF538E0
Copy OK
Track 23
Filename C:\FLAC\VA - The Complete Stax Volt Singles 1959-1968 (Discs 4-6) (1991) [FLAC]\Disc 4\23 - Booker T. & The MGs - Outrage.wav
Pre-gap length 0:00:02.40
Peak level 77.1 %
Track quality 100.0 %
Test CRC 74D53A92
Copy CRC 74D53A92
Copy OK
Track 24
Filename C:\FLAC\VA - The Complete Stax Volt Singles 1959-1968 (Discs 4-6) (1991) [FLAC]\Disc 4\24 - Otis Redding - I've Been Loving You Too Long (To Stop Now).wav
Pre-gap length 0:00:02.43
Peak level 96.5 %
Track quality 100.0 %
Test CRC 2583505B
Copy CRC 2583505B
Copy OK
Track 25
Filename C:\FLAC\VA - The Complete Stax Volt Singles 1959-1968 (Discs 4-6) (1991) [FLAC]\Disc 4\25 - Otis Redding - I'm Depending On You.wav
Pre-gap length 0:00:02.22
Peak level 95.2 %
Track quality 100.0 %
Test CRC C749A60E
Copy CRC C749A60E
Copy OK
Track 26
Filename C:\FLAC\VA - The Complete Stax Volt Singles 1959-1968 (Discs 4-6) (1991) [FLAC]\Disc 4\26 - Astors - Candy.wav
Pre-gap length 0:00:01.43
Peak level 88.0 %
Track quality 99.9 %
Test CRC 932F5290
Copy CRC 932F5290
Copy OK
Track 27
Filename C:\FLAC\VA - The Complete Stax Volt Singles 1959-1968 (Discs 4-6) (1991) [FLAC]\Disc 4\27 - Wendy Rene - Give You What I Got.wav
Pre-gap length 0:00:03.12
Peak level 99.9 %
Track quality 100.0 %
Test CRC F4A810FD
Copy CRC F4A810FD
Copy OK
No errors occured
End of status report
 
CUE
PERFORMER "Various"
TITLE "The Complete Stax/Volt Singles: 1959-1968 (disc 4)"
FILE "01 - Rufus Thomas - Jump Back.wav" WAVE
TRACK 01 AUDIO
TITLE "Rufus Thomas - Jump Back"
PERFORMER "Rufus Thomas - Jump Back"
INDEX 01 00:00:00
TRACK 02 AUDIO
TITLE "Otis Redding - Chained And Bound"
PERFORMER "Otis Redding - Chained And Bound"
INDEX 00 02:19:18
FILE "02 - Otis Redding - Chained And Bound.wav" WAVE
INDEX 01 00:00:00
TRACK 03 AUDIO
TITLE "Barbara & The Browns - In My Heart"
PERFORMER "Barbara & The Browns - In My Heart"
INDEX 00 02:38:40
FILE "03 - Barbara & The Browns - In My Heart.wav" WAVE
INDEX 01 00:00:00
TRACK 04 AUDIO
TITLE "Johnny Jenkins - Spunky"
PERFORMER "Johnny Jenkins - Spunky"
INDEX 00 02:49:17
FILE "04 - Johnny Jenkins - Spunky.wav" WAVE
INDEX 01 00:00:00
TRACK 05 AUDIO
TITLE "Wendy Rene - Bar B-Q"
PERFORMER "Wendy Rene - Bar B-Q"
INDEX 00 02:18:21
FILE "05 - Wendy Rene - Bar B-Q.wav" WAVE
INDEX 01 00:00:00
TRACK 06 AUDIO
TITLE "Mad Lads - The Sidewalk Surf"
PERFORMER "Mad Lads - The Sidewalk Surf"
INDEX 00 02:30:20
FILE "06 - Mad Lads - The Sidewalk Surf.wav" WAVE
INDEX 01 00:00:00
TRACK 07 AUDIO
TITLE "Booker T. & The MGs - Can't Be Still"
PERFORMER "Booker T. & The MGs - Can't Be Still"
INDEX 00 02:21:67
FILE "07 - Booker T. & The MGs - Can't Be Still.wav" WAVE
INDEX 01 00:00:00
TRACK 08 AUDIO
TITLE "Carla Thomas - A Woman's Love"
PERFORMER "Carla Thomas - A Woman's Love"
INDEX 00 01:58:62
FILE "08 - Carla Thomas - A Woman's Love.wav" WAVE
INDEX 01 00:00:00
TRACK 09 AUDIO
TITLE "Baracudas - Yank Me (Doodle)"
PERFORMER "Baracudas - Yank Me (Doodle)"
INDEX 00 02:53:15
FILE "09 - Baracudas - Yank Me (Doodle).wav" WAVE
INDEX 01 00:00:00
TRACK 10 AUDIO
TITLE "Otis Redding - That's How Strong My Love Is"
PERFORMER "Otis Redding - That's How Strong My Love Is"
INDEX 00 02:26:72
FILE "10 - Otis Redding - That's How Strong My Love Is.wav" WAVE
INDEX 01 00:00:00
TRACK 11 AUDIO
TITLE "Otis Redding - Mr. Pitiful"
PERFORMER "Otis Redding - Mr. Pitiful"
INDEX 00 02:21:73
FILE "11 - Otis Redding - Mr. Pitiful.wav" WAVE
INDEX 01 00:00:00
TRACK 12 AUDIO
TITLE "Del-Rays - Don't Let Her Be Your Baby"
PERFORMER "Del-Rays - Don't Let Her Be Your Baby"
INDEX 00 02:41:05
FILE "12 - Del-Rays - Don't Let Her Be Your Baby.wav" WAVE
INDEX 01 00:00:00
TRACK 13 AUDIO
TITLE "David Porter - Can't See You When I Want To"
PERFORMER "David Porter - Can't See You When I Want To"
INDEX 00 02:34:65
FILE "13 - David Porter - Can't See You When I Want To.wav" WAVE
INDEX 01 00:00:00
TRACK 14 AUDIO
TITLE "Barbara & The Browns - My Lover"
PERFORMER "Barbara & The Browns - My Lover"
INDEX 00 02:52:38
FILE "14 - Barbara & The Browns - My Lover.wav" WAVE
INDEX 01 00:00:00
TRACK 15 AUDIO
TITLE "The Admirals - Got You On My Mind"
PERFORMER "The Admirals - Got You On My Mind"
INDEX 00 02:21:33
FILE "15 - The Admirals - Got You On My Mind.wav" WAVE
INDEX 01 00:00:00
TRACK 16 AUDIO
TITLE "Carla Thomas - How Do You Quit (Someone You Love)"
PERFORMER "Carla Thomas - How Do You Quit (Someone You Love)"
INDEX 00 02:35:49
FILE "16 - Carla Thomas - How Do You Quit (Someone You Love).wav" WAVE
INDEX 01 00:00:00
TRACK 17 AUDIO
TITLE "Gorgeous George - Biggest Fool In Town"
PERFORMER "Gorgeous George - Biggest Fool In Town"
INDEX 00 02:52:65
FILE "17 - Gorgeous George - Biggest Fool In Town.wav" WAVE
INDEX 01 00:00:00
TRACK 18 AUDIO
TITLE "Mar-Keys - Banana Juice"
PERFORMER "Mar-Keys - Banana Juice"
INDEX 00 02:46:12
FILE "18 - Mar-Keys - Banana Juice.wav" WAVE
INDEX 01 00:00:00
TRACK 19 AUDIO
TITLE "Rufus Thomas - Little Sally Walker"
PERFORMER "Rufus Thomas - Little Sally Walker"
INDEX 00 02:22:60
FILE "19 - Rufus Thomas - Little Sally Walker.wav" WAVE
INDEX 01 00:00:00
TRACK 20 AUDIO
TITLE "Sam & Dave - A Place Nobody Can Find"
PERFORMER "Sam & Dave - A Place Nobody Can Find"
INDEX 00 02:26:34
FILE "20 - Sam & Dave - A Place Nobody Can Find.wav" WAVE
INDEX 01 00:00:00
TRACK 21 AUDIO
TITLE "Sam & Dave - Goodnight Baby"
PERFORMER "Sam & Dave - Goodnight Baby"
INDEX 00 02:54:42
FILE "21 - Sam & Dave - Goodnight Baby.wav" WAVE
INDEX 01 00:00:00
TRACK 22 AUDIO
TITLE "Booker T. & The MGs - Boot-Leg"
PERFORMER "Booker T. & The MGs - Boot-Leg"
INDEX 00 02:44:33
FILE "22 - Booker T. & The MGs - Boot-Leg.wav" WAVE
INDEX 01 00:00:00
TRACK 23 AUDIO
TITLE "Booker T. & The MGs - Outrage"
PERFORMER "Booker T. & The MGs - Outrage"
INDEX 00 02:04:12
FILE "23 - Booker T. & The MGs - Outrage.wav" WAVE
INDEX 01 00:00:00
TRACK 24 AUDIO
TITLE "Otis Redding - I've Been Loving You Too Long (To Stop Now)"
PERFORMER "Otis Redding - I've Been Loving You Too Long (To Stop Now)"
INDEX 00 02:36:07
FILE "24 - Otis Redding - I've Been Loving You Too Long (To Stop Now).wav" WAVE
INDEX 01 00:00:00
TRACK 25 AUDIO
TITLE "Otis Redding - I'm Depending On You"
PERFORMER "Otis Redding - I'm Depending On You"
INDEX 00 02:53:38
FILE "25 - Otis Redding - I'm Depending On You.wav" WAVE
INDEX 01 00:00:00
TRACK 26 AUDIO
TITLE "Astors - Candy"
PERFORMER "Astors - Candy"
INDEX 00 02:28:45
FILE "26 - Astors - Candy.wav" WAVE
INDEX 01 00:00:00
TRACK 27 AUDIO
TITLE "Wendy Rene - Give You What I Got"
PERFORMER "Wendy Rene - Give You What I Got"
INDEX 00 02:59:10
FILE "27 - Wendy Rene - Give You What I Got.wav" WAVE
INDEX 01 00:00:00
 
CD 5
Продолжительность: 72 min 12 sec
1. Carla Thomas - Stop! Look What You're Doin' (2:33)
2. Rufus Thomas - Willy Nilly (2:39)
3. Mad Lads - Don't Have To Shop Around (2:55)
4. William Bell - Crying All By Myself (2:43)
5. Sam & Dave - I Take What I Want (2:33)
6. Rufus & Carla - When You Move You Lose (2:50)
7. Otis Redding - Respect (2:09)
8. The Premiers - Make It Me (2:48)
9. Rufus Thomas - The World Is Round (2:29)
10. The Astors - In The Twilight Zone (2:45)
11. Sir Isaac & The Do-Dads - Blue Groove (2:36)
12. Sam & Dave - You Don't Know Like I Know (2:41)
13. The Mar-Keys - Grab This Thing (Part 1) (2:36)
14. Booker T. & The MGs - Be My Lady (2:38)
15. Carla Thomas - Comfort Me (2:41)
16. Otis Redding - I Can't Turn You Loose (2:48)
17. Otis Redding - Just One More Day (3:30)
18. Mad Lads - I Want Someone (2:43)
19. Rufus & Carla - Birds & Bees (2:26)
20. Mar-Keys - Philly Dog (2:16)
21. Johnnie Taylor - I Had A Dream (3:05)
22. Otis Redding - Satisfaction (2:46)
23. Eddie Floyd - Things Get Better (2:25)
24. Ruby Johnson - I'll Run Your Hurt Away (3:09)
25. Four Shells - Hot Dog (2:10)
26. Carla Thomas - Let Me Good To You (2:44)
27. Sam & Dave - Hold On I'm Comin' (2:34)
 
Log EAC
EAC extraction logfile from 24. October 2005, 7:09 for CD
Various / The Complete Stax/Volt Singles: 1959-1968 (disc 5)
Used drive : LITE-ON DVDRW SOHW-1633S Adapter: 0 ID: 0
Read mode : Secure with NO C2, accurate stream, disable cache
Read offset correction : 12
Overread into Lead-In and Lead-Out : No
Used output format : Internal WAV Routines
44.100 Hz; 16 Bit; Stereo
Other options :
Fill up missing offset samples with silence : Yes
Delete leading and trailing silent blocks : No
Installed external ASPI interface
Track 1
Filename C:\FLAC\VA - The Complete Stax Volt Singles 1959-1968 (Discs 4-6) (1991) [FLAC]\Disc 5\01 - Carla Thomas - Stop! Look What You're Doin'.wav
Pre-gap length 0:00:02.32
Peak level 89.5 %
Track quality 100.0 %
Test CRC 68D96379
Copy CRC 68D96379
Copy OK
Track 2
Filename C:\FLAC\VA - The Complete Stax Volt Singles 1959-1968 (Discs 4-6) (1991) [FLAC]\Disc 5\02 - Rufus Thomas - Willy Nilly.wav
Pre-gap length 0:00:02.38
Peak level 81.7 %
Track quality 100.0 %
Test CRC 10F94417
Copy CRC 10F94417
Copy OK
Track 3
Filename C:\FLAC\VA - The Complete Stax Volt Singles 1959-1968 (Discs 4-6) (1991) [FLAC]\Disc 5\03 - Mad Lads - Don't Have To Shop Around.wav
Pre-gap length 0:00:02.72
Peak level 94.4 %
Track quality 100.0 %
Test CRC F8EE7CF2
Copy CRC F8EE7CF2
Copy OK
Track 4
Filename C:\FLAC\VA - The Complete Stax Volt Singles 1959-1968 (Discs 4-6) (1991) [FLAC]\Disc 5\04 - William Bell - Crying All By Myself.wav
Pre-gap length 0:00:03.33
Peak level 100.0 %
Track quality 100.0 %
Test CRC 4D5D70D1
Copy CRC 4D5D70D1
Copy OK
Track 5
Filename C:\FLAC\VA - The Complete Stax Volt Singles 1959-1968 (Discs 4-6) (1991) [FLAC]\Disc 5\05 - Sam & Dave - I Take What I Want.wav
Pre-gap length 0:00:03.25
Peak level 100.0 %
Track quality 100.0 %
Test CRC C3B7BAF2
Copy CRC C3B7BAF2
Copy OK
Track 6
Filename C:\FLAC\VA - The Complete Stax Volt Singles 1959-1968 (Discs 4-6) (1991) [FLAC]\Disc 5\06 - Rufus & Carla - When You Move You Lose.wav
Pre-gap length 0:00:03.05
Peak level 97.9 %
Track quality 100.0 %
Test CRC F67EDF4E
Copy CRC F67EDF4E
Copy OK
Track 7
Filename C:\FLAC\VA - The Complete Stax Volt Singles 1959-1968 (Discs 4-6) (1991) [FLAC]\Disc 5\07 - Otis Redding - Respect.wav
Pre-gap length 0:00:03.25
Peak level 92.9 %
Track quality 100.0 %
Test CRC 1BA3DB69
Copy CRC 1BA3DB69
Copy OK
Track 8
Filename C:\FLAC\VA - The Complete Stax Volt Singles 1959-1968 (Discs 4-6) (1991) [FLAC]\Disc 5\08 - The Premiers - Make It Me.wav
Pre-gap length 0:00:02.42
Peak level 64.7 %
Track quality 100.0 %
Test CRC 8867B354
Copy CRC 8867B354
Copy OK
Track 9
Filename C:\FLAC\VA - The Complete Stax Volt Singles 1959-1968 (Discs 4-6) (1991) [FLAC]\Disc 5\09 - Rufus Thomas - The World Is Round.wav
Pre-gap length 0:00:02.52
Peak level 95.6 %
Track quality 100.0 %
Test CRC FF38F9CB
Copy CRC FF38F9CB
Copy OK
Track 10
Filename C:\FLAC\VA - The Complete Stax Volt Singles 1959-1968 (Discs 4-6) (1991) [FLAC]\Disc 5\10 - The Astors - In The Twilight Zone.wav
Pre-gap length 0:00:03.42
Peak level 100.0 %
Track quality 100.0 %
Test CRC E2B478CF
Copy CRC E2B478CF
Copy OK
Track 11
Filename C:\FLAC\VA - The Complete Stax Volt Singles 1959-1968 (Discs 4-6) (1991) [FLAC]\Disc 5\11 - Sir Isaac & The Do-Dads - Blue Groove.wav
Pre-gap length 0:00:03.49
Peak level 71.4 %
Track quality 100.0 %
Test CRC 90CAAAE7
Copy CRC 90CAAAE7
Copy OK
Track 12
Filename C:\FLAC\VA - The Complete Stax Volt Singles 1959-1968 (Discs 4-6) (1991) [FLAC]\Disc 5\12 - Sam & Dave - You Don't Know Like I Know.wav
Pre-gap length 0:00:02.40
Peak level 98.6 %
Track quality 99.9 %
Test CRC 2FE62417
Copy CRC 2FE62417
Copy OK
Track 13
Filename C:\FLAC\VA - The Complete Stax Volt Singles 1959-1968 (Discs 4-6) (1991) [FLAC]\Disc 5\13 - The Mar-Keys - Grab This Thing (Part 1).wav
Pre-gap length 0:00:03.05
Peak level 83.3 %
Track quality 100.0 %
Test CRC 318B5873
Copy CRC 318B5873
Copy OK
Track 14
Filename C:\FLAC\VA - The Complete Stax Volt Singles 1959-1968 (Discs 4-6) (1991) [FLAC]\Disc 5\14 - Booker T. & The MGs - Be My Lady.wav
Pre-gap length 0:00:03.35
Peak level 98.9 %
Track quality 100.0 %
Test CRC 34BBCB8F
Copy CRC 34BBCB8F
Copy OK
Track 15
Filename C:\FLAC\VA - The Complete Stax Volt Singles 1959-1968 (Discs 4-6) (1991) [FLAC]\Disc 5\15 - Carla Thomas - Comfort Me.wav
Pre-gap length 0:00:03.62
Peak level 92.2 %
Track quality 100.0 %
Test CRC 2118FAC7
Copy CRC 2118FAC7
Copy OK
Track 16
Filename C:\FLAC\VA - The Complete Stax Volt Singles 1959-1968 (Discs 4-6) (1991) [FLAC]\Disc 5\16 - Otis Redding - I Can't Turn You Loose.wav
Pre-gap length 0:00:03.33
Peak level 96.6 %
Track quality 100.0 %
Test CRC 916B91D4
Copy CRC 916B91D4
Copy OK
Track 17
Filename C:\FLAC\VA - The Complete Stax Volt Singles 1959-1968 (Discs 4-6) (1991) [FLAC]\Disc 5\17 - Otis Redding - Just One More Day.wav
Pre-gap length 0:00:03.08
Peak level 100.0 %
Track quality 100.0 %
Test CRC 38010DB1
Copy CRC 38010DB1
Copy OK
Track 18
Filename C:\FLAC\VA - The Complete Stax Volt Singles 1959-1968 (Discs 4-6) (1991) [FLAC]\Disc 5\18 - Mad Lads - I Want Someone.wav
Pre-gap length 0:00:03.00
Peak level 86.5 %
Track quality 100.0 %
Test CRC D4F9DBE1
Copy CRC D4F9DBE1
Copy OK
Track 19
Filename C:\FLAC\VA - The Complete Stax Volt Singles 1959-1968 (Discs 4-6) (1991) [FLAC]\Disc 5\19 - Rufus & Carla - Birds & Bees.wav
Pre-gap length 0:00:02.72
Peak level 99.0 %
Track quality 100.0 %
Test CRC 9A210D9D
Copy CRC 9A210D9D
Copy OK
Track 20
Filename C:\FLAC\VA - The Complete Stax Volt Singles 1959-1968 (Discs 4-6) (1991) [FLAC]\Disc 5\20 - Mar-Keys - Philly Dog.wav
Pre-gap length 0:00:02.60
Peak level 63.8 %
Track quality 100.0 %
Test CRC 1C54C21F
Copy CRC 1C54C21F
Copy OK
Track 21
Filename C:\FLAC\VA - The Complete Stax Volt Singles 1959-1968 (Discs 4-6) (1991) [FLAC]\Disc 5\21 - Johnnie Taylor - I Had A Dream.wav
Pre-gap length 0:00:01.57
Peak level 100.0 %
Track quality 100.0 %
Test CRC A68FC7A0
Copy CRC A68FC7A0
Copy OK
Track 22
Filename C:\FLAC\VA - The Complete Stax Volt Singles 1959-1968 (Discs 4-6) (1991) [FLAC]\Disc 5\22 - Otis Redding - Satisfaction.wav
Pre-gap length 0:00:02.62
Peak level 99.9 %
Track quality 100.0 %
Test CRC 5A7112B6
Copy CRC 5A7112B6
Copy OK
Track 23
Filename C:\FLAC\VA - The Complete Stax Volt Singles 1959-1968 (Discs 4-6) (1991) [FLAC]\Disc 5\23 - Eddie Floyd - Things Get Better.wav
Pre-gap length 0:00:02.40
Peak level 99.9 %
Track quality 100.0 %
Test CRC 9EA91AA3
Copy CRC 9EA91AA3
Copy OK
Track 24
Filename C:\FLAC\VA - The Complete Stax Volt Singles 1959-1968 (Discs 4-6) (1991) [FLAC]\Disc 5\24 - Ruby Johnson - I'll Run Your Hurt Away.wav
Pre-gap length 0:00:02.37
Peak level 94.9 %
Track quality 99.9 %
Test CRC FAFCE80C
Copy CRC FAFCE80C
Copy OK
Track 25
Filename C:\FLAC\VA - The Complete Stax Volt Singles 1959-1968 (Discs 4-6) (1991) [FLAC]\Disc 5\25 - Four Shells - Hot Dog.wav
Pre-gap length 0:00:02.38
Peak level 92.4 %
Track quality 100.0 %
Test CRC 64D6644D
Copy CRC 64D6644D
Copy OK
Track 26
Filename C:\FLAC\VA - The Complete Stax Volt Singles 1959-1968 (Discs 4-6) (1991) [FLAC]\Disc 5\26 - Carla Thomas - Let Me Good To You.wav
Pre-gap length 0:00:03.33
Peak level 98.4 %
Track quality 100.0 %
Test CRC 93AD729B
Copy CRC 93AD729B
Copy OK
Track 27
Filename C:\FLAC\VA - The Complete Stax Volt Singles 1959-1968 (Discs 4-6) (1991) [FLAC]\Disc 5\27 - Sam & Dave - Hold On I'm Comin'.wav
Pre-gap length 0:00:03.42
Peak level 100.0 %
Track quality 99.9 %
Test CRC 18F75297
Copy CRC 18F75297
Copy OK
No errors occured
End of status report
 
CUE
PERFORMER "Various"
TITLE "The Complete Stax/Volt Singles: 1959-1968 (disc 5)"
FILE "01 - Carla Thomas - Stop! Look What You're Doin'.wav" WAVE
TRACK 01 AUDIO
TITLE "Carla Thomas - Stop! Look What You're Doin'"
PERFORMER "Carla Thomas - Stop! Look What You're Doin'"
INDEX 01 00:00:00
TRACK 02 AUDIO
TITLE "Rufus Thomas - Willy Nilly"
PERFORMER "Rufus Thomas - Willy Nilly"
INDEX 00 02:31:15
FILE "02 - Rufus Thomas - Willy Nilly.wav" WAVE
INDEX 01 00:00:00
TRACK 03 AUDIO
TITLE "Mad Lads - Don't Have To Shop Around"
PERFORMER "Mad Lads - Don't Have To Shop Around"
INDEX 00 02:36:53
FILE "03 - Mad Lads - Don't Have To Shop Around.wav" WAVE
INDEX 01 00:00:00
TRACK 04 AUDIO
TITLE "William Bell - Crying All By Myself"
PERFORMER "William Bell - Crying All By Myself"
INDEX 00 02:52:37
FILE "04 - William Bell - Crying All By Myself.wav" WAVE
INDEX 01 00:00:00
TRACK 05 AUDIO
TITLE "Sam & Dave - I Take What I Want"
PERFORMER "Sam & Dave - I Take What I Want"
INDEX 00 02:40:35
FILE "05 - Sam & Dave - I Take What I Want.wav" WAVE
INDEX 01 00:00:00
TRACK 06 AUDIO
TITLE "Rufus & Carla - When You Move You Lose"
PERFORMER "Rufus & Carla - When You Move You Lose"
INDEX 00 02:30:62
FILE "06 - Rufus & Carla - When You Move You Lose.wav" WAVE
INDEX 01 00:00:00
TRACK 07 AUDIO
TITLE "Otis Redding - Respect"
PERFORMER "Otis Redding - Respect"
INDEX 00 02:46:53
FILE "07 - Otis Redding - Respect.wav" WAVE
INDEX 01 00:00:00
TRACK 08 AUDIO
TITLE "The Premiers - Make It Me"
PERFORMER "The Premiers - Make It Me"
INDEX 00 02:07:28
FILE "08 - The Premiers - Make It Me.wav" WAVE
INDEX 01 00:00:00
TRACK 09 AUDIO
TITLE "Rufus Thomas - The World Is Round"
PERFORMER "Rufus Thomas - The World Is Round"
INDEX 00 02:45:50
FILE "09 - Rufus Thomas - The World Is Round.wav" WAVE
INDEX 01 00:00:00
TRACK 10 AUDIO
TITLE "The Astors - In The Twilight Zone"
PERFORMER "The Astors - In The Twilight Zone"
INDEX 00 02:25:73
FILE "10 - The Astors - In The Twilight Zone.wav" WAVE
INDEX 01 00:00:00
TRACK 11 AUDIO
TITLE "Sir Isaac & The Do-Dads - Blue Groove"
PERFORMER "Sir Isaac & The Do-Dads - Blue Groove"
INDEX 00 02:41:36
FILE "11 - Sir Isaac & The Do-Dads - Blue Groove.wav" WAVE
INDEX 01 00:00:00
TRACK 12 AUDIO
TITLE "Sam & Dave - You Don't Know Like I Know"
PERFORMER "Sam & Dave - You Don't Know Like I Know"
INDEX 00 02:34:18
FILE "12 - Sam & Dave - You Don't Know Like I Know.wav" WAVE
INDEX 01 00:00:00
TRACK 13 AUDIO
TITLE "The Mar-Keys - Grab This Thing (Part 1)"
PERFORMER "The Mar-Keys - Grab This Thing (Part 1)"
INDEX 00 02:38:20
FILE "13 - The Mar-Keys - Grab This Thing (Part 1).wav" WAVE
INDEX 01 00:00:00
TRACK 14 AUDIO
TITLE "Booker T. & The MGs - Be My Lady"
PERFORMER "Booker T. & The MGs - Be My Lady"
INDEX 00 02:33:15
FILE "14 - Booker T. & The MGs - Be My Lady.wav" WAVE
INDEX 01 00:00:00
TRACK 15 AUDIO
TITLE "Carla Thomas - Comfort Me"
PERFORMER "Carla Thomas - Comfort Me"
INDEX 00 02:34:70
FILE "15 - Carla Thomas - Comfort Me.wav" WAVE
INDEX 01 00:00:00
TRACK 16 AUDIO
TITLE "Otis Redding - I Can't Turn You Loose"
PERFORMER "Otis Redding - I Can't Turn You Loose"
INDEX 00 02:38:12
FILE "16 - Otis Redding - I Can't Turn You Loose.wav" WAVE
INDEX 01 00:00:00
TRACK 17 AUDIO
TITLE "Otis Redding - Just One More Day"
PERFORMER "Otis Redding - Just One More Day"
INDEX 00 02:45:60
FILE "17 - Otis Redding - Just One More Day.wav" WAVE
INDEX 01 00:00:00
TRACK 18 AUDIO
TITLE "Mad Lads - I Want Someone"
PERFORMER "Mad Lads - I Want Someone"
INDEX 00 03:27:52
FILE "18 - Mad Lads - I Want Someone.wav" WAVE
INDEX 01 00:00:00
TRACK 19 AUDIO
TITLE "Rufus & Carla - Birds & Bees"
PERFORMER "Rufus & Carla - Birds & Bees"
INDEX 00 02:40:68
FILE "19 - Rufus & Carla - Birds & Bees.wav" WAVE
INDEX 01 00:00:00
TRACK 20 AUDIO
TITLE "Mar-Keys - Philly Dog"
PERFORMER "Mar-Keys - Philly Dog"
INDEX 00 02:23:60
FILE "20 - Mar-Keys - Philly Dog.wav" WAVE
INDEX 01 00:00:00
TRACK 21 AUDIO
TITLE "Johnnie Taylor - I Had A Dream"
PERFORMER "Johnnie Taylor - I Had A Dream"
INDEX 00 02:14:38
FILE "21 - Johnnie Taylor - I Had A Dream.wav" WAVE
INDEX 01 00:00:00
TRACK 22 AUDIO
TITLE "Otis Redding - Satisfaction"
PERFORMER "Otis Redding - Satisfaction"
INDEX 00 03:02:48
FILE "22 - Otis Redding - Satisfaction.wav" WAVE
INDEX 01 00:00:00
TRACK 23 AUDIO
TITLE "Eddie Floyd - Things Get Better"
PERFORMER "Eddie Floyd - Things Get Better"
INDEX 00 02:44:23
FILE "23 - Eddie Floyd - Things Get Better.wav" WAVE
INDEX 01 00:00:00
TRACK 24 AUDIO
TITLE "Ruby Johnson - I'll Run Your Hurt Away"
PERFORMER "Ruby Johnson - I'll Run Your Hurt Away"
INDEX 00 02:23:25
FILE "24 - Ruby Johnson - I'll Run Your Hurt Away.wav" WAVE
INDEX 01 00:00:00
TRACK 25 AUDIO
TITLE "Four Shells - Hot Dog"
PERFORMER "Four Shells - Hot Dog"
INDEX 00 03:07:30
FILE "25 - Four Shells - Hot Dog.wav" WAVE
INDEX 01 00:00:00
TRACK 26 AUDIO
TITLE "Carla Thomas - Let Me Good To You"
PERFORMER "Carla Thomas - Let Me Good To You"
INDEX 00 02:06:42
FILE "26 - Carla Thomas - Let Me Good To You.wav" WAVE
INDEX 01 00:00:00
TRACK 27 AUDIO
TITLE "Sam & Dave - Hold On I'm Comin'"
PERFORMER "Sam & Dave - Hold On I'm Comin'"
INDEX 00 02:40:65
FILE "27 - Sam & Dave - Hold On I'm Comin'.wav" WAVE
INDEX 01 00:00:00
 
CD 6
Продолжительность: 71 min 11 sec
1. Albert King - Laundromat Blues (3:09)
2. Mad Lads - Sugar Sugar (2:31)
3. William Bell - Share What You Got (But Keep What You Need) (2:51)
4. William Bell - Marching Off To War (3:19)
5. Otis Redding - My Prayer (3:11)
6. Mable John - Your Good Thing (Is About To End) (2:58)
7. Johnnie Taylor - I Got To Love Some Body's Baby (2:55)
8. Mad Lads - I Want A Girl (2:45)
9. Eddie Floyd - Knock On Wood (3:06)
10. Carla Thomas - B-A-B-Y (2:56)
11. Booker T. & The MGs - My Sweet Potato (2:43)
12. Booker T. & The MGs - Booker Loo (2:29)
13. Albert King - Oh, Pretty Baby (2:47)
14. Sam & Dave - Said I Wasn't Gonna Tell Nobody (2:37)
15. William Bell - Never Like This Before (3:02)
16. Otis Redding - Fa-Fa-Fa-Fa-Fa (Sad Song) (2:43)
17. Mad Lads - Patch My Heart (2:34)
18. Rufus Thomas - Sister's Got A Boyfriend (2:44)
19. Ruby Johnson - Come To Me My Darling (2:54)
20. Ruby Johnson - When My Love Comes Down (2:48)
21. Otis Redding - Try A Little Tenderness (3:20)
22. Albert King - Crosscut Saw (2:35)
23. Johnnie Taylor - Little Bluebird (2:57)
24. Johnnie Taylor - Toe Hold (2:40)
25. Booker T. & The MGs - Jingle Bells (2:37)
 
Log EAC
EAC extraction logfile from 24. October 2005, 9:57 for CD
Various / The Complete Stax/Volt Singles: 1959-1968 (disc 6)
Used drive : LITE-ON DVDRW SOHW-1633S Adapter: 0 ID: 0
Read mode : Secure with NO C2, accurate stream, disable cache
Read offset correction : 12
Overread into Lead-In and Lead-Out : No
Used output format : Internal WAV Routines
44.100 Hz; 16 Bit; Stereo
Other options :
Fill up missing offset samples with silence : Yes
Delete leading and trailing silent blocks : No
Installed external ASPI interface
Track 1
Filename C:\FLAC\VA - The Complete Stax Volt Singles 1959-1968 (Discs 4-6) (1991) [FLAC]\Disc 6\01 - Albert King - Laundromat Blues.wav
Pre-gap length 0:00:02.32
Peak level 100.0 %
Track quality 100.0 %
Test CRC 01FF54F2
Copy CRC 01FF54F2
Copy OK
Track 2
Filename C:\FLAC\VA - The Complete Stax Volt Singles 1959-1968 (Discs 4-6) (1991) [FLAC]\Disc 6\02 - Mad Lads - Sugar Sugar.wav
Pre-gap length 0:00:02.41
Peak level 99.5 %
Track quality 99.9 %
Test CRC 957E12CD
Copy CRC 957E12CD
Copy OK
Track 3
Filename C:\FLAC\VA - The Complete Stax Volt Singles 1959-1968 (Discs 4-6) (1991) [FLAC]\Disc 6\03 - William Bell - Share What You Got (But Keep What You Need).wav
Pre-gap length 0:00:02.36
Peak level 99.9 %
Track quality 100.0 %
Test CRC 15FD0F53
Copy CRC 15FD0F53
Copy OK
Track 4
Filename C:\FLAC\VA - The Complete Stax Volt Singles 1959-1968 (Discs 4-6) (1991) [FLAC]\Disc 6\04 - William Bell - Marching Off To War.wav
Pre-gap length 0:00:02.31
Peak level 100.0 %
Track quality 100.0 %
Test CRC B187E285
Copy CRC B187E285
Copy OK
Track 5
Filename C:\FLAC\VA - The Complete Stax Volt Singles 1959-1968 (Discs 4-6) (1991) [FLAC]\Disc 6\05 - Otis Redding - My Prayer.wav
Pre-gap length 0:00:02.49
Peak level 81.5 %
Track quality 99.9 %
Test CRC 225766AE
Copy CRC 225766AE
Copy OK
Track 6
Filename C:\FLAC\VA - The Complete Stax Volt Singles 1959-1968 (Discs 4-6) (1991) [FLAC]\Disc 6\06 - Mable John - Your Good Thing (Is About To End).wav
Pre-gap length 0:00:02.59
Peak level 75.8 %
Track quality 100.0 %
Test CRC E0F80B9B
Copy CRC E0F80B9B
Copy OK
Track 7
Filename C:\FLAC\VA - The Complete Stax Volt Singles 1959-1968 (Discs 4-6) (1991) [FLAC]\Disc 6\07 - Johnnie Taylor - I Got To Love Some Body's Baby.wav
Pre-gap length 0:00:02.31
Peak level 99.3 %
Track quality 100.0 %
Test CRC A52FA020
Copy CRC A52FA020
Copy OK
Track 8
Filename C:\FLAC\VA - The Complete Stax Volt Singles 1959-1968 (Discs 4-6) (1991) [FLAC]\Disc 6\08 - Mad Lads - I Want A Girl.wav
Pre-gap length 0:00:02.00
Peak level 90.1 %
Track quality 100.0 %
Test CRC 5E481C3A
Copy CRC 5E481C3A
Copy OK
Track 9
Filename C:\FLAC\VA - The Complete Stax Volt Singles 1959-1968 (Discs 4-6) (1991) [FLAC]\Disc 6\09 - Eddie Floyd - Knock On Wood.wav
Pre-gap length 0:00:00.66
Peak level 83.6 %
Track quality 100.0 %
Test CRC 5AD496CD
Copy CRC 5AD496CD
Copy OK
Track 10
Filename C:\FLAC\VA - The Complete Stax Volt Singles 1959-1968 (Discs 4-6) (1991) [FLAC]\Disc 6\10 - Carla Thomas - B-A-B-Y.wav
Pre-gap length 0:00:02.56
Peak level 95.1 %
Track quality 100.0 %
Test CRC 9A041B13
Copy CRC 9A041B13
Copy OK
Track 11
Filename C:\FLAC\VA - The Complete Stax Volt Singles 1959-1968 (Discs 4-6) (1991) [FLAC]\Disc 6\11 - Booker T. & The MGs - My Sweet Potato.wav
Pre-gap length 0:00:02.11
Peak level 80.1 %
Track quality 100.0 %
Test CRC 6F5A8538
Copy CRC 6F5A8538
Copy OK
Track 12
Filename C:\FLAC\VA - The Complete Stax Volt Singles 1959-1968 (Discs 4-6) (1991) [FLAC]\Disc 6\12 - Booker T. & The MGs - Booker Loo.wav
Pre-gap length 0:00:02.46
Peak level 84.7 %
Track quality 100.0 %
Test CRC 3948EEA8
Copy CRC 3948EEA8
Copy OK
Track 13
Filename C:\FLAC\VA - The Complete Stax Volt Singles 1959-1968 (Discs 4-6) (1991) [FLAC]\Disc 6\13 - Albert King - Oh, Pretty Baby.wav
Pre-gap length 0:00:02.04
Peak level 95.8 %
Track quality 100.0 %
Test CRC 365DDFF9
Copy CRC 365DDFF9
Copy OK
Track 14
Filename C:\FLAC\VA - The Complete Stax Volt Singles 1959-1968 (Discs 4-6) (1991) [FLAC]\Disc 6\14 - Sam & Dave - Said I Wasn't Gonna Tell Nobody.wav
Pre-gap length 0:00:02.46
Peak level 100.0 %
Track quality 100.0 %
Test CRC 76AB706E
Copy CRC 76AB706E
Copy OK
Track 15
Filename C:\FLAC\VA - The Complete Stax Volt Singles 1959-1968 (Discs 4-6) (1991) [FLAC]\Disc 6\15 - William Bell - Never Like This Before.wav
Pre-gap length 0:00:02.44
Peak level 100.0 %
Track quality 100.0 %
Test CRC 435F0E16
Copy CRC 435F0E16
Copy OK
Track 16
Filename C:\FLAC\VA - The Complete Stax Volt Singles 1959-1968 (Discs 4-6) (1991) [FLAC]\Disc 6\16 - Otis Redding - Fa-Fa-Fa-Fa-Fa (Sad Song).wav
Pre-gap length 0:00:02.56
Peak level 100.0 %
Track quality 100.0 %
Test CRC DB94F094
Copy CRC DB94F094
Copy OK
Track 17
Filename C:\FLAC\VA - The Complete Stax Volt Singles 1959-1968 (Discs 4-6) (1991) [FLAC]\Disc 6\17 - Mad Lads - Patch My Heart.wav
Pre-gap length 0:00:02.35
Peak level 97.2 %
Track quality 100.0 %
Test CRC 86D586C3
Copy CRC 86D586C3
Copy OK
Track 18
Filename C:\FLAC\VA - The Complete Stax Volt Singles 1959-1968 (Discs 4-6) (1991) [FLAC]\Disc 6\18 - Rufus Thomas - Sister's Got A Boyfriend.wav
Pre-gap length 0:00:02.63
Peak level 100.0 %
Track quality 100.0 %
Test CRC C537E325
Copy CRC C537E325
Copy OK
Track 19
Filename C:\FLAC\VA - The Complete Stax Volt Singles 1959-1968 (Discs 4-6) (1991) [FLAC]\Disc 6\19 - Ruby Johnson - Come To Me My Darling.wav
Pre-gap length 0:00:02.23
Peak level 91.0 %
Track quality 99.9 %
Test CRC C22065DB
Copy CRC C22065DB
Copy OK
Track 20
Filename C:\FLAC\VA - The Complete Stax Volt Singles 1959-1968 (Discs 4-6) (1991) [FLAC]\Disc 6\20 - Ruby Johnson - When My Love Comes Down.wav
Pre-gap length 0:00:02.46
Peak level 94.8 %
Track quality 100.0 %
Test CRC D4D7217E
Copy CRC D4D7217E
Copy OK
Track 21
Filename C:\FLAC\VA - The Complete Stax Volt Singles 1959-1968 (Discs 4-6) (1991) [FLAC]\Disc 6\21 - Otis Redding - Try A Little Tenderness.wav
Pre-gap length 0:00:03.06
Peak level 100.0 %
Track quality 100.0 %
Test CRC 412353F7
Copy CRC 412353F7
Copy OK
Track 22
Filename C:\FLAC\VA - The Complete Stax Volt Singles 1959-1968 (Discs 4-6) (1991) [FLAC]\Disc 6\22 - Albert King - Crosscut Saw.wav
Pre-gap length 0:00:02.54
Peak level 100.0 %
Track quality 100.0 %
Test CRC C19FCFAE
Copy CRC C19FCFAE
Copy OK
Track 23
Filename C:\FLAC\VA - The Complete Stax Volt Singles 1959-1968 (Discs 4-6) (1991) [FLAC]\Disc 6\23 - Johnnie Taylor - Little Bluebird.wav
Pre-gap length 0:00:02.51
Peak level 100.0 %
Track quality 100.0 %
Test CRC 48E1D679
Copy CRC 48E1D679
Copy OK
Track 24
Filename C:\FLAC\VA - The Complete Stax Volt Singles 1959-1968 (Discs 4-6) (1991) [FLAC]\Disc 6\24 - Johnnie Taylor - Toe Hold.wav
Pre-gap length 0:00:02.51
Peak level 100.0 %
Track quality 99.9 %
Test CRC 657B2ADE
Copy CRC 657B2ADE
Copy OK
Track 25
Filename C:\FLAC\VA - The Complete Stax Volt Singles 1959-1968 (Discs 4-6) (1991) [FLAC]\Disc 6\25 - Booker T. & The MGs - Jingle Bells.wav
Pre-gap length 0:00:02.59
Peak level 90.0 %
Track quality 99.9 %
Test CRC F2ED980F
Copy CRC F2ED980F
Copy OK
No errors occured
End of status report
 
CUE
PERFORMER "Various"
TITLE "The Complete Stax/Volt Singles: 1959-1968 (disc 6)"
FILE "01 - Albert King - Laundromat Blues.wav" WAVE
TRACK 01 AUDIO
TITLE "Albert King - Laundromat Blues"
PERFORMER "Albert King - Laundromat Blues"
INDEX 01 00:00:00
TRACK 02 AUDIO
TITLE "Mad Lads - Sugar Sugar"
PERFORMER "Mad Lads - Sugar Sugar"
INDEX 00 03:06:57
FILE "02 - Mad Lads - Sugar Sugar.wav" WAVE
INDEX 01 00:00:00
TRACK 03 AUDIO
TITLE "William Bell - Share What You Got (But Keep What You Need)"
PERFORMER "William Bell - Share What You Got (But Keep What You Need)"
INDEX 00 02:28:69
FILE "03 - William Bell - Share What You Got (But Keep What You Need).wav" WAVE
INDEX 01 00:00:00
TRACK 04 AUDIO
TITLE "William Bell - Marching Off To War"
PERFORMER "William Bell - Marching Off To War"
INDEX 00 02:49:11
FILE "04 - William Bell - Marching Off To War.wav" WAVE
INDEX 01 00:00:00
TRACK 05 AUDIO
TITLE "Otis Redding - My Prayer"
PERFORMER "Otis Redding - My Prayer"
INDEX 00 03:16:49
FILE "05 - Otis Redding - My Prayer.wav" WAVE
INDEX 01 00:00:00
TRACK 06 AUDIO
TITLE "Mable John - Your Good Thing (Is About To End)"
PERFORMER "Mable John - Your Good Thing (Is About To End)"
INDEX 00 03:08:61
FILE "06 - Mable John - Your Good Thing (Is About To End).wav" WAVE
INDEX 01 00:00:00
TRACK 07 AUDIO
TITLE "Johnnie Taylor - I Got To Love Some Body's Baby"
PERFORMER "Johnnie Taylor - I Got To Love Some Body's Baby"
INDEX 00 02:56:06
FILE "07 - Johnnie Taylor - I Got To Love Some Body's Baby.wav" WAVE
INDEX 01 00:00:00
TRACK 08 AUDIO
TITLE "Mad Lads - I Want A Girl"
PERFORMER "Mad Lads - I Want A Girl"
INDEX 00 02:53:18
FILE "08 - Mad Lads - I Want A Girl.wav" WAVE
INDEX 01 00:00:00
TRACK 09 AUDIO
TITLE "Eddie Floyd - Knock On Wood"
PERFORMER "Eddie Floyd - Knock On Wood"
INDEX 00 02:44:51
FILE "09 - Eddie Floyd - Knock On Wood.wav" WAVE
INDEX 01 00:00:00
TRACK 10 AUDIO
TITLE "Carla Thomas - B-A-B-Y"
PERFORMER "Carla Thomas - B-A-B-Y"
INDEX 00 03:03:52
FILE "10 - Carla Thomas - B-A-B-Y.wav" WAVE
INDEX 01 00:00:00
TRACK 11 AUDIO
TITLE "Booker T. & The MGs - My Sweet Potato"
PERFORMER "Booker T. & The MGs - My Sweet Potato"
INDEX 00 02:54:16
FILE "11 - Booker T. & The MGs - My Sweet Potato.wav" WAVE
INDEX 01 00:00:00
TRACK 12 AUDIO
TITLE "Booker T. & The MGs - Booker Loo"
PERFORMER "Booker T. & The MGs - Booker Loo"
INDEX 00 02:41:12
FILE "12 - Booker T. & The MGs - Booker Loo.wav" WAVE
INDEX 01 00:00:00
TRACK 13 AUDIO
TITLE "Albert King - Oh, Pretty Baby"
PERFORMER "Albert King - Oh, Pretty Baby"
INDEX 00 02:27:36
FILE "13 - Albert King - Oh, Pretty Baby.wav" WAVE
INDEX 01 00:00:00
TRACK 14 AUDIO
TITLE "Sam & Dave - Said I Wasn't Gonna Tell Nobody"
PERFORMER "Sam & Dave - Said I Wasn't Gonna Tell Nobody"
INDEX 00 02:44:64
FILE "14 - Sam & Dave - Said I Wasn't Gonna Tell Nobody.wav" WAVE
INDEX 01 00:00:00
TRACK 15 AUDIO
TITLE "William Bell - Never Like This Before"
PERFORMER "William Bell - Never Like This Before"
INDEX 00 02:34:66
FILE "15 - William Bell - Never Like This Before.wav" WAVE
INDEX 01 00:00:00
TRACK 16 AUDIO
TITLE "Otis Redding - Fa-Fa-Fa-Fa-Fa (Sad Song)"
PERFORMER "Otis Redding - Fa-Fa-Fa-Fa-Fa (Sad Song)"
INDEX 00 02:59:49
FILE "16 - Otis Redding - Fa-Fa-Fa-Fa-Fa (Sad Song).wav" WAVE
INDEX 01 00:00:00
TRACK 17 AUDIO
TITLE "Mad Lads - Patch My Heart"
PERFORMER "Mad Lads - Patch My Heart"
INDEX 00 02:40:57
FILE "17 - Mad Lads - Patch My Heart.wav" WAVE
INDEX 01 00:00:00
TRACK 18 AUDIO
TITLE "Rufus Thomas - Sister's Got A Boyfriend"
PERFORMER "Rufus Thomas - Sister's Got A Boyfriend"
INDEX 00 02:31:20
FILE "18 - Rufus Thomas - Sister's Got A Boyfriend.wav" WAVE
INDEX 01 00:00:00
TRACK 19 AUDIO
TITLE "Ruby Johnson - Come To Me My Darling"
PERFORMER "Ruby Johnson - Come To Me My Darling"
INDEX 00 02:41:67
FILE "19 - Ruby Johnson - Come To Me My Darling.wav" WAVE
INDEX 01 00:00:00
TRACK 20 AUDIO
TITLE "Ruby Johnson - When My Love Comes Down"
PERFORMER "Ruby Johnson - When My Love Comes Down"
INDEX 00 02:52:26
FILE "20 - Ruby Johnson - When My Love Comes Down.wav" WAVE
INDEX 01 00:00:00
TRACK 21 AUDIO
TITLE "Otis Redding - Try A Little Tenderness"
PERFORMER "Otis Redding - Try A Little Tenderness"
INDEX 00 02:45:14
FILE "21 - Otis Redding - Try A Little Tenderness.wav" WAVE
INDEX 01 00:00:00
TRACK 22 AUDIO
TITLE "Albert King - Crosscut Saw"
PERFORMER "Albert King - Crosscut Saw"
INDEX 00 03:18:19
FILE "22 - Albert King - Crosscut Saw.wav" WAVE
INDEX 01 00:00:00
TRACK 23 AUDIO
TITLE "Johnnie Taylor - Little Bluebird"
PERFORMER "Johnnie Taylor - Little Bluebird"
INDEX 00 02:32:64
FILE "23 - Johnnie Taylor - Little Bluebird.wav" WAVE
INDEX 01 00:00:00
TRACK 24 AUDIO
TITLE "Johnnie Taylor - Toe Hold"
PERFORMER "Johnnie Taylor - Toe Hold"
INDEX 00 02:54:26
FILE "24 - Johnnie Taylor - Toe Hold.wav" WAVE
INDEX 01 00:00:00
TRACK 25 AUDIO
TITLE "Booker T. & The MGs - Jingle Bells"
PERFORMER "Booker T. & The MGs - Jingle Bells"
INDEX 00 02:37:44
FILE "25 - Booker T. & The MGs - Jingle Bells.wav" WAVE
INDEX 01 00:00:00
 
CD 7
Продолжительность: 69 min 42 sec
1. Sam & Dave - You Got Me Hummin' (2:50)
2. Mable John - You're Taking Up Another Man's Place (2:54)
3. Carla Thomas - All I Want For Christmas Is You (2:54)
4. Charmels - Please Uncle Sam (Send Back My Man) (2:34)
5. Carla Thomas - Something Good (Is Going To Happen To You) (2:34)
6. Eddie Floyd - Raise Your Hand (2:28)
7. Johnnie Taylor - Ain't That Loving You (For More Reasons Than One) (3:12)
8. Mad Lads - I Don't Want To Lose Your Love (2:21)
9. Sam & Dave - When Something Is Wrong With My Baby (3:18)
10. Bobby Wilson - Let Me Down Slow (2:11)
11. Booker T. & The MGs - Hip Hug-Her (2:26)
12. William Bell - Everybody Loves A Winner (2:53)
13. Sir Mack Rice - Mini-Skirt Minnie (2:34)
14. Carla Thomas - When Tomorrow Comes (2:31)
15. Eddie Purrell - The Spoiler (2:47)
16. Otis Redding - I Love You More Than Words Can Say (2:56)
17. Ruby Johnson - If I Ever Needed Love (I Sure Do Need It Now) (2:23)
18. Mable John - Same Time Same Place (2:56)
19. Otis & Carla - Tramp (3:02)
20. Bar-Kays - Soul Finger (2:21)
21. Bar-Kays - Knucklehead (2:27)
22. Otis Redding - Shake (2:36)
23. Albert King - Born Under A Bad Sign (2:49)
24. Sam & Dave - Soothe Me (3:00)
25. Sam & Dave - I Can't Stand Up (2:43)
26. Eddie Floyd - Don't Rock The Boat (2:02)
 
Log EAC
EAC extraction logfile from 26. October 2005, 14:18 for CD
Various / The Complete Stax/Volt Singles: 1959-1968 (Disc 7)
Used drive : LITE-ON DVDRW SOHW-1633S Adapter: 0 ID: 0
Read mode : Secure with NO C2, accurate stream, disable cache
Read offset correction : 12
Overread into Lead-In and Lead-Out : No
Used output format : Internal WAV Routines
44.100 Hz; 16 Bit; Stereo
Other options :
Fill up missing offset samples with silence : Yes
Delete leading and trailing silent blocks : No
Installed external ASPI interface
Track 1
Filename C:\FLAC\VA - The Complete Stax Volt Singles 1959-1968 (Discs 7-9) (1991) [FLAC]\Disc 7\01 - Sam & Dave - You Got Me Hummin'.wav
Pre-gap length 0:00:02.32
Peak level 82.2 %
Track quality 100.0 %
Test CRC 681E631B
Copy CRC 681E631B
Copy OK
Track 2
Filename C:\FLAC\VA - The Complete Stax Volt Singles 1959-1968 (Discs 7-9) (1991) [FLAC]\Disc 7\02 - Mable John - You're Taking Up Another Man's Place.wav
Pre-gap length 0:00:02.35
Peak level 89.6 %
Track quality 100.0 %
Test CRC E2352254
Copy CRC E2352254
Copy OK
Track 3
Filename C:\FLAC\VA - The Complete Stax Volt Singles 1959-1968 (Discs 7-9) (1991) [FLAC]\Disc 7\03 - Carla Thomas - All I Want For Christmas Is You.wav
Pre-gap length 0:00:02.59
Peak level 85.2 %
Track quality 100.0 %
Test CRC 317DB8DC
Copy CRC 317DB8DC
Copy OK
Track 4
Filename C:\FLAC\VA - The Complete Stax Volt Singles 1959-1968 (Discs 7-9) (1991) [FLAC]\Disc 7\04 - Charmels - Please Uncle Sam (Send Back My Man).wav
Pre-gap length 0:00:02.33
Peak level 86.8 %
Track quality 100.0 %
Test CRC B329FB64
Copy CRC B329FB64
Copy OK
Track 5
Filename C:\FLAC\VA - The Complete Stax Volt Singles 1959-1968 (Discs 7-9) (1991) [FLAC]\Disc 7\05 - Carla Thomas - Something Good (Is Going To Happen To You).wav
Pre-gap length 0:00:02.52
Peak level 99.9 %
Track quality 100.0 %
Test CRC 86CCB23C
Copy CRC 86CCB23C
Copy OK
Track 6
Filename C:\FLAC\VA - The Complete Stax Volt Singles 1959-1968 (Discs 7-9) (1991) [FLAC]\Disc 7\06 - Eddie Floyd - Raise Your Hand.wav
Pre-gap length 0:00:02.37
Peak level 93.4 %
Track quality 100.0 %
Test CRC F4A418DA
Copy CRC F4A418DA
Copy OK
Track 7
Filename C:\FLAC\VA - The Complete Stax Volt Singles 1959-1968 (Discs 7-9) (1991) [FLAC]\Disc 7\07 - Johnnie Taylor - Ain't That Loving You (For More Reasons Than One).wav
Pre-gap length 0:00:02.45
Peak level 100.0 %
Track quality 100.0 %
Test CRC 7B687DEE
Copy CRC 7B687DEE
Copy OK
Track 8
Filename C:\FLAC\VA - The Complete Stax Volt Singles 1959-1968 (Discs 7-9) (1991) [FLAC]\Disc 7\08 - Mad Lads - I Don't Want To Lose Your Love.wav
Pre-gap length 0:00:02.57
Peak level 100.0 %
Track quality 100.0 %
Test CRC 30EF8E50
Copy CRC 30EF8E50
Copy OK
Track 9
Filename C:\FLAC\VA - The Complete Stax Volt Singles 1959-1968 (Discs 7-9) (1991) [FLAC]\Disc 7\09 - Sam & Dave - When Something Is Wrong With My Baby.wav
Pre-gap length 0:00:02.15
Peak level 97.5 %
Track quality 100.0 %
Test CRC 4A558574
Copy CRC 4A558574
Copy OK
Track 10
Filename C:\FLAC\VA - The Complete Stax Volt Singles 1959-1968 (Discs 7-9) (1991) [FLAC]\Disc 7\10 - Bobby Wilson - Let Me Down Slow.wav
Pre-gap length 0:00:02.20
Peak level 84.8 %
Track quality 100.0 %
Test CRC 8F6BC5CD
Copy CRC 8F6BC5CD
Copy OK
Track 11
Filename C:\FLAC\VA - The Complete Stax Volt Singles 1959-1968 (Discs 7-9) (1991) [FLAC]\Disc 7\11 - Booker T. & The MGs - Hip Hug-Her.wav
Pre-gap length 0:00:01.38
Peak level 100.0 %
Track quality 100.0 %
Test CRC 066055B5
Copy CRC 066055B5
Copy OK
Track 12
Filename C:\FLAC\VA - The Complete Stax Volt Singles 1959-1968 (Discs 7-9) (1991) [FLAC]\Disc 7\12 - William Bell - Everybody Loves A Winner.wav
Pre-gap length 0:00:02.45
Peak level 89.4 %
Track quality 99.9 %
Test CRC CB5AB785
Copy CRC CB5AB785
Copy OK
Track 13
Filename C:\FLAC\VA - The Complete Stax Volt Singles 1959-1968 (Discs 7-9) (1991) [FLAC]\Disc 7\13 - Sir Mack Rice - Mini-Skirt Minnie.wav
Pre-gap length 0:00:02.52
Peak level 100.0 %
Track quality 99.9 %
Test CRC A10D5699
Copy CRC A10D5699
Copy OK
Track 14
Filename C:\FLAC\VA - The Complete Stax Volt Singles 1959-1968 (Discs 7-9) (1991) [FLAC]\Disc 7\14 - Carla Thomas - When Tomorrow Comes.wav
Pre-gap length 0:00:02.32
Peak level 100.0 %
Track quality 100.0 %
Test CRC 53FC0D38
Copy CRC 53FC0D38
Copy OK
Track 15
Filename C:\FLAC\VA - The Complete Stax Volt Singles 1959-1968 (Discs 7-9) (1991) [FLAC]\Disc 7\15 - Eddie Purrell - The Spoiler.wav
Pre-gap length 0:00:02.38
Peak level 99.9 %
Track quality 100.0 %
Test CRC 9B091868
Copy CRC 9B091868
Copy OK
Track 16
Filename C:\FLAC\VA - The Complete Stax Volt Singles 1959-1968 (Discs 7-9) (1991) [FLAC]\Disc 7\16 - Otis Redding - I Love You More Than Words Can Say.wav
Pre-gap length 0:00:01.10
Peak level 62.9 %
Track quality 100.0 %
Test CRC 0F4665F4
Copy CRC 0F4665F4
Copy OK
Track 17
Filename C:\FLAC\VA - The Complete Stax Volt Singles 1959-1968 (Discs 7-9) (1991) [FLAC]\Disc 7\17 - Ruby Johnson - If I Ever Needed Love (I Sure Do Need It Now).wav
Pre-gap length 0:00:02.55
Peak level 96.9 %
Track quality 100.0 %
Test CRC 7BF6E4EA
Copy CRC 7BF6E4EA
Copy OK
Track 18
Filename C:\FLAC\VA - The Complete Stax Volt Singles 1959-1968 (Discs 7-9) (1991) [FLAC]\Disc 7\18 - Mable John - Same Time Same Place.wav
Pre-gap length 0:00:02.45
Peak level 100.0 %
Track quality 99.9 %
Test CRC 9812BC9B
Copy CRC 9812BC9B
Copy OK
Track 19
Filename C:\FLAC\VA - The Complete Stax Volt Singles 1959-1968 (Discs 7-9) (1991) [FLAC]\Disc 7\19 - Otis & Carla - Tramp.wav
Pre-gap length 0:00:02.43
Peak level 98.3 %
Track quality 100.0 %
Test CRC C42CEC83
Copy CRC C42CEC83
Copy OK
Track 20
Filename C:\FLAC\VA - The Complete Stax Volt Singles 1959-1968 (Discs 7-9) (1991) [FLAC]\Disc 7\20 - Bar-Kays - Soul Finger.wav
Pre-gap length 0:00:02.33
Peak level 95.7 %
Track quality 100.0 %
Test CRC A9BD2DFD
Copy CRC A9BD2DFD
Copy OK
Track 21
Filename C:\FLAC\VA - The Complete Stax Volt Singles 1959-1968 (Discs 7-9) (1991) [FLAC]\Disc 7\21 - Bar-Kays - Knucklehead.wav
Pre-gap length 0:00:02.46
Peak level 99.9 %
Track quality 100.0 %
Test CRC 2C60786C
Copy CRC 2C60786C
Copy OK
Track 22
Filename C:\FLAC\VA - The Complete Stax Volt Singles 1959-1968 (Discs 7-9) (1991) [FLAC]\Disc 7\22 - Otis Redding - Shake.wav
Pre-gap length 0:00:03.60
Peak level 86.4 %
Track quality 100.0 %
Test CRC BB9D9396
Copy CRC BB9D9396
Copy OK
Track 23
Filename C:\FLAC\VA - The Complete Stax Volt Singles 1959-1968 (Discs 7-9) (1991) [FLAC]\Disc 7\23 - Albert King - Born Under A Bad Sign.wav
Pre-gap length 0:00:04.45
Peak level 98.3 %
Track quality 99.9 %
Test CRC F44E72E4
Copy CRC F44E72E4
Copy OK
Track 24
Filename C:\FLAC\VA - The Complete Stax Volt Singles 1959-1968 (Discs 7-9) (1991) [FLAC]\Disc 7\24 - Sam & Dave - Soothe Me.wav
Pre-gap length 0:00:02.72
Peak level 91.8 %
Track quality 100.0 %
Test CRC 5142B583
Copy CRC 5142B583
Copy OK
Track 25
Filename C:\FLAC\VA - The Complete Stax Volt Singles 1959-1968 (Discs 7-9) (1991) [FLAC]\Disc 7\25 - Sam & Dave - I Can't Stand Up.wav
Pre-gap length 0:00:02.39
Peak level 100.0 %
Track quality 99.9 %
Test CRC 69E27331
Copy CRC 69E27331
Copy OK
Track 26
Filename C:\FLAC\VA - The Complete Stax Volt Singles 1959-1968 (Discs 7-9) (1991) [FLAC]\Disc 7\26 - Eddie Floyd - Don't Rock The Boat.wav
Pre-gap length 0:00:02.54
Peak level 99.0 %
Track quality 100.0 %
Test CRC A8577D12
Copy CRC A8577D12
Copy OK
No errors occured
End of status report
 
CUE
PERFORMER "Various"
TITLE "The Complete Stax/Volt Singles: 1959-1968 (Disc 7)"
FILE "01 - Sam & Dave - You Got Me Hummin'.wav" WAVE
TRACK 01 AUDIO
TITLE "Sam & Dave - You Got Me Hummin'"
PERFORMER "Sam & Dave - You Got Me Hummin'"
INDEX 01 00:00:00
TRACK 02 AUDIO
TITLE "Mable John - You're Taking Up Another Man's Place"
PERFORMER "Mable John - You're Taking Up Another Man's Place"
INDEX 00 02:48:18
FILE "02 - Mable John - You're Taking Up Another Man's Place.wav" WAVE
INDEX 01 00:00:00
TRACK 03 AUDIO
TITLE "Carla Thomas - All I Want For Christmas Is You"
PERFORMER "Carla Thomas - All I Want For Christmas Is You"
INDEX 00 02:51:56
FILE "03 - Carla Thomas - All I Want For Christmas Is You.wav" WAVE
INDEX 01 00:00:00
TRACK 04 AUDIO
TITLE "Charmels - Please Uncle Sam (Send Back My Man)"
PERFORMER "Charmels - Please Uncle Sam (Send Back My Man)"
INDEX 00 02:51:47
FILE "04 - Charmels - Please Uncle Sam (Send Back My Man).wav" WAVE
INDEX 01 00:00:00
TRACK 05 AUDIO
TITLE "Carla Thomas - Something Good (Is Going To Happen To You)"
PERFORMER "Carla Thomas - Something Good (Is Going To Happen To You)"
INDEX 00 02:31:60
FILE "05 - Carla Thomas - Something Good (Is Going To Happen To You).wav" WAVE
INDEX 01 00:00:00
TRACK 06 AUDIO
TITLE "Eddie Floyd - Raise Your Hand"
PERFORMER "Eddie Floyd - Raise Your Hand"
INDEX 00 02:32:08
FILE "06 - Eddie Floyd - Raise Your Hand.wav" WAVE
INDEX 01 00:00:00
TRACK 07 AUDIO
TITLE "Johnnie Taylor - Ain't That Loving You (For More Reasons Than One)"
PERFORMER "Johnnie Taylor - Ain't That Loving You (For More Reasons Than One)"
INDEX 00 02:26:00
FILE "07 - Johnnie Taylor - Ain't That Loving You (For More Reasons Than One).wav" WAVE
INDEX 01 00:00:00
TRACK 08 AUDIO
TITLE "Mad Lads - I Don't Want To Lose Your Love"
PERFORMER "Mad Lads - I Don't Want To Lose Your Love"
INDEX 00 03:09:73
FILE "08 - Mad Lads - I Don't Want To Lose Your Love.wav" WAVE
INDEX 01 00:00:00
TRACK 09 AUDIO
TITLE "Sam & Dave - When Something Is Wrong With My Baby"
PERFORMER "Sam & Dave - When Something Is Wrong With My Baby"
INDEX 00 02:19:15
FILE "09 - Sam & Dave - When Something Is Wrong With My Baby.wav" WAVE
INDEX 01 00:00:00
TRACK 10 AUDIO
TITLE "Bobby Wilson - Let Me Down Slow"
PERFORMER "Bobby Wilson - Let Me Down Slow"
INDEX 00 03:16:53
FILE "10 - Bobby Wilson - Let Me Down Slow.wav" WAVE
INDEX 01 00:00:00
TRACK 11 AUDIO
TITLE "Booker T. & The MGs - Hip Hug-Her"
PERFORMER "Booker T. & The MGs - Hip Hug-Her"
INDEX 00 02:09:69
FILE "11 - Booker T. & The MGs - Hip Hug-Her.wav" WAVE
INDEX 01 00:00:00
TRACK 12 AUDIO
TITLE "William Bell - Everybody Loves A Winner"
PERFORMER "William Bell - Everybody Loves A Winner"
INDEX 00 02:23:40
FILE "12 - William Bell - Everybody Loves A Winner.wav" WAVE
INDEX 01 00:00:00
TRACK 13 AUDIO
TITLE "Sir Mack Rice - Mini-Skirt Minnie"
PERFORMER "Sir Mack Rice - Mini-Skirt Minnie"
INDEX 00 02:50:48
FILE "13 - Sir Mack Rice - Mini-Skirt Minnie.wav" WAVE
INDEX 01 00:00:00
TRACK 14 AUDIO
TITLE "Carla Thomas - When Tomorrow Comes"
PERFORMER "Carla Thomas - When Tomorrow Comes"
INDEX 00 02:31:73
FILE "14 - Carla Thomas - When Tomorrow Comes.wav" WAVE
INDEX 01 00:00:00
TRACK 15 AUDIO
TITLE "Eddie Purrell - The Spoiler"
PERFORMER "Eddie Purrell - The Spoiler"
INDEX 00 02:29:25
FILE "15 - Eddie Purrell - The Spoiler.wav" WAVE
INDEX 01 00:00:00
TRACK 16 AUDIO
TITLE "Otis Redding - I Love You More Than Words Can Say"
PERFORMER "Otis Redding - I Love You More Than Words Can Say"
INDEX 00 02:46:02
FILE "16 - Otis Redding - I Love You More Than Words Can Say.wav" WAVE
INDEX 01 00:00:00
TRACK 17 AUDIO
TITLE "Ruby Johnson - If I Ever Needed Love (I Sure Do Need It Now)"
PERFORMER "Ruby Johnson - If I Ever Needed Love (I Sure Do Need It Now)"
INDEX 00 02:53:33
FILE "17 - Ruby Johnson - If I Ever Needed Love (I Sure Do Need It Now).wav" WAVE
INDEX 01 00:00:00
TRACK 18 AUDIO
TITLE "Mable John - Same Time Same Place"
PERFORMER "Mable John - Same Time Same Place"
INDEX 00 02:21:27
FILE "18 - Mable John - Same Time Same Place.wav" WAVE
INDEX 01 00:00:00
TRACK 19 AUDIO
TITLE "Otis & Carla - Tramp"
PERFORMER "Otis & Carla - Tramp"
INDEX 00 02:53:55
FILE "19 - Otis & Carla - Tramp.wav" WAVE
INDEX 01 00:00:00
TRACK 20 AUDIO
TITLE "Bar-Kays - Soul Finger"
PERFORMER "Bar-Kays - Soul Finger"
INDEX 00 03:00:32
FILE "20 - Bar-Kays - Soul Finger.wav" WAVE
INDEX 01 00:00:00
TRACK 21 AUDIO
TITLE "Bar-Kays - Knucklehead"
PERFORMER "Bar-Kays - Knucklehead"
INDEX 00 02:19:26
FILE "21 - Bar-Kays - Knucklehead.wav" WAVE
INDEX 01 00:00:00
TRACK 22 AUDIO
TITLE "Otis Redding - Shake"
PERFORMER "Otis Redding - Shake"
INDEX 00 02:23:30
FILE "22 - Otis Redding - Shake.wav" WAVE
INDEX 01 00:00:00
TRACK 23 AUDIO
TITLE "Albert King - Born Under A Bad Sign"
PERFORMER "Albert King - Born Under A Bad Sign"
INDEX 00 02:31:40
FILE "23 - Albert King - Born Under A Bad Sign.wav" WAVE
INDEX 01 00:00:00
TRACK 24 AUDIO
TITLE "Sam & Dave - Soothe Me"
PERFORMER "Sam & Dave - Soothe Me"
INDEX 00 02:46:28
FILE "24 - Sam & Dave - Soothe Me.wav" WAVE
INDEX 01 00:00:00
TRACK 25 AUDIO
TITLE "Sam & Dave - I Can't Stand Up"
PERFORMER "Sam & Dave - I Can't Stand Up"
INDEX 00 02:57:36
FILE "25 - Sam & Dave - I Can't Stand Up.wav" WAVE
INDEX 01 00:00:00
TRACK 26 AUDIO
TITLE "Eddie Floyd - Don't Rock The Boat"
PERFORMER "Eddie Floyd - Don't Rock The Boat"
INDEX 00 02:40:21
FILE "26 - Eddie Floyd - Don't Rock The Boat.wav" WAVE
INDEX 01 00:00:00
Приватный:
Нет (DHT включён)
Размер:
2.64 Гб (2,833,458,981 байт) » файлов: 347
Участники:
0 раздают, 0 качают (0 участников всего)
Внешние участники:
2 раздают, 1 качают (3 участников всего) [ Обновить ]
Есть вопросы - пишите личное сообщение пользователю M0p94ok.
03:34
38
Нет комментариев. Ваш будет первым!