Поиск

(Funk, Soul) VA - The Best Of Funky Family (ME 00552) - 1997, FLAC (tracks+.cue), lossless

(Funk, Soul) VA - The Best Of Funky Family (ME 00552) - 1997, FLAC (tracks+.cue), lossless
Треклист:
Various Artists - The Best Of Funky Family
Жанр: Funk, Soul
Год выпуска диска: 1997
Производитель диска: Soulciety Records
Аудио кодек: FLAC
Тип рипа: tracks+.cue
Битрейт аудио: lossless
Продолжительность: 00:71:25
1. Push - Eddie's Thing (7:01)
2. Ever C - Blowin (4:03)
3. Rad - Wishy (3:40)
4. Push - Push Express (3:54)
5. Mc Torro - London Kills Me (6:25)
6. Naked Funk - Higher Love (5:19)
7. Stp - Stp Express (3:30)
8. M'blu Et Moi - I Wanna Dance (5:34)
9. Bus People Express - South Carolina (2:18)
10. Vicki Anderson - Don't Throw Your Love (4:12)
11. Rad - Venus Drops (4:06)
12. Romjack - Across The Panhandle (5:01)
13. Bobby Byrd Feat. Jacko Peake - I Got It (4:30)
14. Rad - Never Say Never (3:56)
15. Slide Five - Fender Bender (4:19)
16. Push - Cut Me Loose (3:37)
Собственноручный рип с оригинального диска от funky_cat!
 
Log EAC
Exact Audio Copy V0.99 prebeta 5 from 4. May 2009
EAC extraction logfile from 15. March 2010, 22:41
Various / The Best Of Funky Family
Used drive : Optiarc DVD RW AD-7170A Adapter: 0 ID: 1
Read mode : Secure
Utilize accurate stream : Yes
Defeat audio cache : Yes
Make use of C2 pointers : No
Read offset correction : 48
Overread into Lead-In and Lead-Out : No
Fill up missing offset samples with silence : Yes
Delete leading and trailing silent blocks : No
Null samples used in CRC calculations : Yes
Used interface : Native Win32 interface for Win NT & 2000
Gap handling : Appended to previous track
Used output format : User Defined Encoder
Selected bitrate : 1024 kBit/s
Quality : High
Add ID3 tag : No
Command line compressor : C:\Program Files\FLAC\flac.exe
Additional command line options : -5 -V -T "ARTIST=%a" -T "TITLE=%t" -T "ALBUM=%g" -T "DATE=%y" -T "TRACKNUMBER=%n" -T "GENRE=%m" -T "COMMENT=Ripped by andygrakoff aka yetiisyou" %s
TOC of the extracted CD
Track | Start | Length | Start sector | End sector
---------------------------------------------------------
1 | 0:00.00 | 7:01.37 | 0 | 31611
2 | 7:01.37 | 4:03.68 | 31612 | 49904
3 | 11:05.30 | 3:40.00 | 49905 | 66404
4 | 14:45.30 | 3:54.62 | 66405 | 84016
5 | 18:40.17 | 6:25.60 | 84017 | 112951
6 | 25:06.02 | 5:19.63 | 112952 | 136939
7 | 30:25.65 | 3:30.30 | 136940 | 152719
8 | 33:56.20 | 5:34.42 | 152720 | 177811
9 | 39:30.62 | 2:18.23 | 177812 | 188184
10 | 41:49.10 | 4:12.57 | 188185 | 207141
11 | 46:01.67 | 4:06.23 | 207142 | 225614
12 | 50:08.15 | 5:01.22 | 225615 | 248211
13 | 55:09.37 | 4:30.63 | 248212 | 268524
14 | 59:40.25 | 3:56.07 | 268525 | 286231
15 | 63:36.32 | 4:19.58 | 286232 | 305714
16 | 67:56.15 | 3:37.27 | 305715 | 322016
Track 1
Filename E:\!Rips\Various - The Best Of Funky Family (ME 00552)\01 – Eddie's Thing.wav
Pre-gap length 0:00:02.00
Peak level 100.0 %
Track quality 100.0 %
Test CRC CF8A48E6
Copy CRC CF8A48E6
Accurately ripped (confidence 5) [96BD7B39]
Copy OK
Track 2
Filename E:\!Rips\Various - The Best Of Funky Family (ME 00552)\02 – Blowin.wav
Peak level 100.0 %
Track quality 100.0 %
Test CRC 123FFDC9
Copy CRC 123FFDC9
Accurately ripped (confidence 5) [0B06882E]
Copy OK
Track 3
Filename E:\!Rips\Various - The Best Of Funky Family (ME 00552)\03 – Wishy.wav
Peak level 100.0 %
Track quality 100.0 %
Test CRC DDE7BB86
Copy CRC DDE7BB86
Accurately ripped (confidence 5) [733A3EA5]
Copy OK
Track 4
Filename E:\!Rips\Various - The Best Of Funky Family (ME 00552)\04 – Push Express.wav
Peak level 100.0 %
Track quality 100.0 %
Test CRC C106A73B
Copy CRC C106A73B
Accurately ripped (confidence 5) [BFE52AF9]
Copy OK
Track 5
Filename E:\!Rips\Various - The Best Of Funky Family (ME 00552)\05 – London Kills Me.wav
Peak level 100.0 %
Track quality 100.0 %
Test CRC ECDA09DA
Copy CRC ECDA09DA
Accurately ripped (confidence 5) [6980402B]
Copy OK
Track 6
Filename E:\!Rips\Various - The Best Of Funky Family (ME 00552)\06 – Higher Love.wav
Peak level 100.0 %
Track quality 100.0 %
Test CRC D27E8BFC
Copy CRC D27E8BFC
Cannot be verified as accurate (confidence 5) [EF793EC0], AccurateRip returned [281B73C6]
Copy OK
Track 7
Filename E:\!Rips\Various - The Best Of Funky Family (ME 00552)\07 – Stp Express.wav
Peak level 100.0 %
Track quality 100.0 %
Test CRC 8639A41C
Copy CRC 8639A41C
Cannot be verified as accurate (confidence 5) [E2535ADA], AccurateRip returned [4BCEA88D]
Copy OK
Track 8
Filename E:\!Rips\Various - The Best Of Funky Family (ME 00552)\08 – I Wanna Dance.wav
Peak level 100.0 %
Track quality 100.0 %
Test CRC C73FE699
Copy CRC C73FE699
Cannot be verified as accurate (confidence 5) [77168433], AccurateRip returned [8B7D6A6F]
Copy OK
Track 9
Filename E:\!Rips\Various - The Best Of Funky Family (ME 00552)\09 – South Carolina.wav
Peak level 94.4 %
Track quality 100.0 %
Test CRC 49B07CEC
Copy CRC 49B07CEC
Cannot be verified as accurate (confidence 5) [7DE2F89C], AccurateRip returned [8676468E]
Copy OK
Track 10
Filename E:\!Rips\Various - The Best Of Funky Family (ME 00552)\10 – Don't Throw Your Love.wav
Peak level 100.0 %
Track quality 100.0 %
Test CRC 196BEF61
Copy CRC 196BEF61
Cannot be verified as accurate (confidence 5) [3D221B70], AccurateRip returned [F73A7A86]
Copy OK
Track 11
Filename E:\!Rips\Various - The Best Of Funky Family (ME 00552)\11 – Venus Drops.wav
Peak level 100.0 %
Track quality 100.0 %
Test CRC AAB553A1
Copy CRC AAB553A1
Cannot be verified as accurate (confidence 5) [7D388397], AccurateRip returned [F2F09CC2]
Copy OK
Track 12
Filename E:\!Rips\Various - The Best Of Funky Family (ME 00552)\12 – Across The Panhandle.wav
Peak level 100.0 %
Track quality 100.0 %
Test CRC 66C526B7
Copy CRC 66C526B7
Cannot be verified as accurate (confidence 5) [DE8F2517], AccurateRip returned [A750602D]
Copy OK
Track 13
Filename E:\!Rips\Various - The Best Of Funky Family (ME 00552)\13 – I Got It.wav
Peak level 100.0 %
Track quality 100.0 %
Test CRC 28B8F786
Copy CRC 28B8F786
Cannot be verified as accurate (confidence 5) [B65D860D], AccurateRip returned [DE372DFC]
Copy OK
Track 14
Filename E:\!Rips\Various - The Best Of Funky Family (ME 00552)\14 – Never Say Never.wav
Peak level 100.0 %
Track quality 99.9 %
Test CRC 027A9DED
Copy CRC 027A9DED
Cannot be verified as accurate (confidence 5) [52E030CB], AccurateRip returned [245AB866]
Copy OK
Track 15
Filename E:\!Rips\Various - The Best Of Funky Family (ME 00552)\15 – Fender Bender.wav
Peak level 100.0 %
Track quality 100.0 %
Test CRC 26FCA09D
Copy CRC 26FCA09D
Accurately ripped (confidence 5) [8A9E4FED]
Copy OK
Track 16
Filename E:\!Rips\Various - The Best Of Funky Family (ME 00552)\16 – Cut Me Loose.wav
Peak level 100.0 %
Track quality 100.0 %
Test CRC 049A052D
Copy CRC 049A052D
Accurately ripped (confidence 3) [8CDF0CCD]
Copy OK
7 track(s) accurately ripped
9 track(s) could not be verified as accurate
Some tracks could not be verified as accurate
No errors occurred
End of status report
 
CUE
REM GENRE Other
REM DATE 1997
REM DISCID D610C510
REM COMMENT "ExactAudioCopy v0.99pb5"
PERFORMER "Various"
TITLE "The Best Of Funky Family"
FILE "01 – Eddie's Thing.wav" WAVE
TRACK 01 AUDIO
TITLE "Eddie's Thing"
PERFORMER "Push"
INDEX 01 00:00:00
FILE "02 – Blowin.wav" WAVE
TRACK 02 AUDIO
TITLE "Blowin"
PERFORMER "Ever C"
INDEX 01 00:00:00
FILE "03 – Wishy.wav" WAVE
TRACK 03 AUDIO
TITLE "Wishy"
PERFORMER "Rad"
INDEX 01 00:00:00
FILE "04 – Push Express.wav" WAVE
TRACK 04 AUDIO
TITLE "Push Express"
PERFORMER "Push"
INDEX 01 00:00:00
FILE "05 – London Kills Me.wav" WAVE
TRACK 05 AUDIO
TITLE "London Kills Me"
PERFORMER "Mc Torro"
INDEX 01 00:00:00
FILE "06 – Higher Love.wav" WAVE
TRACK 06 AUDIO
TITLE "Higher Love"
PERFORMER "Naked Funk"
INDEX 01 00:00:00
FILE "07 – Stp Express.wav" WAVE
TRACK 07 AUDIO
TITLE "Stp Express"
PERFORMER "Stp"
INDEX 01 00:00:00
FILE "08 – I Wanna Dance.wav" WAVE
TRACK 08 AUDIO
TITLE "I Wanna Dance"
PERFORMER "M'blu Et Moi"
INDEX 01 00:00:00
FILE "09 – South Carolina.wav" WAVE
TRACK 09 AUDIO
TITLE "South Carolina"
PERFORMER "Bus People Express"
INDEX 01 00:00:00
FILE "10 – Don't Throw Your Love.wav" WAVE
TRACK 10 AUDIO
TITLE "Don't Throw Your Love"
PERFORMER "Vicki Anderson"
INDEX 01 00:00:00
FILE "11 – Venus Drops.wav" WAVE
TRACK 11 AUDIO
TITLE "Venus Drops"
PERFORMER "Rad"
INDEX 01 00:00:00
FILE "12 – Across The Panhandle.wav" WAVE
TRACK 12 AUDIO
TITLE "Across The Panhandle"
PERFORMER "Romjack"
INDEX 01 00:00:00
FILE "13 – I Got It.wav" WAVE
TRACK 13 AUDIO
TITLE "I Got It"
PERFORMER "Bobby Byrd Feat. Jacko Peake"
INDEX 01 00:00:00
FILE "14 – Never Say Never.wav" WAVE
TRACK 14 AUDIO
TITLE "Never Say Never"
PERFORMER "Rad"
INDEX 01 00:00:00
FILE "15 – Fender Bender.wav" WAVE
TRACK 15 AUDIO
TITLE "Fender Bender"
PERFORMER "Slide Five"
INDEX 01 00:00:00
FILE "16 – Cut Me Loose.wav" WAVE
TRACK 16 AUDIO
TITLE "Cut Me Loose"
PERFORMER "Push"
INDEX 01 00:00:00
Приватный:
Нет (DHT включён)
Размер:
468.57 Мб (491,334,352 байт) » файлов: 24
Участники:
0 раздают, 0 качают (0 участников всего)
Внешние участники:
5 раздают, 1 качают (6 участников всего) [ Обновить ]
Никого нет на раздаче - пишите личное сообщение M0p94ok
No seeders - write personal message to M0p94ok
03:32
22
Нет комментариев. Ваш будет первым!