Поиск

(Funk, Soul) VA - A Tribute To Curtis Mayfield (9362 45500-2) - 1994, FLAC (tracks+.cue), lossless

(Funk, Soul) VA - A Tribute To Curtis Mayfield (9362 45500-2) - 1994, FLAC (tracks+.cue), lossless
Треклист:
Various Artists - A Tribute To Curtis Mayfield
Жанр: Funk, Soul
Год выпуска диска: 1994
Производитель диска: Warner Bros. Records
Аудио кодек: FLAC
Тип рипа: tracks+.cue
Битрейт аудио: lossless
Продолжительность: 00:75:42

1. Gladys Knight - Choice Of Colors (3:53)
2. Steve Winwood - It's All Right! (4:21)
3. Repercussions & Curits Mayfield - Let's Do It Again (4:56)
4. Lenny Kravitz - Billy Jack (6:18)
5. Whitney Houston - Look Into Your Heart (3:55)
6. Bruce Springsteen - Gypsy Woman (3:34)
7. Eric Clapton - You Must Believe Me (4:29)
8. Isley Brothers, The - I'm So Proud (4:58)
9. Branford Marsalis & Impressions, The - Fool For You (3:45)
10. Tevin Campbell - Keep On Pushin' (3:22)
11. Aretha Franklin - The Makings Of You (4:27)
12. B.B. King - Woman's Got Soul (3:49)
13. Rod Stewart - People Get Ready (5:02)
14. Narada Michael Walden - (Don't Worry) If There's A Hell Below, We're All Going To Go (5:10)
15. Phil Collins - I've Been Trying (5:02)
16. Stevie Wonder - I'm The One Who Loves You (3:59)
17. Elton John & Sounds Of Blackness - Amen (4:42)
Собственноручный рип с оригинального диска от funky_cat!
 
Log EAC
Exact Audio Copy V0.99 prebeta 5 from 4. May 2009
EAC extraction logfile from 12. March 2010, 0:16
Various Artists / A Tribute To Curtis Mayfield
Used drive : Optiarc DVD RW AD-7170A Adapter: 0 ID: 1
Read mode : Secure
Utilize accurate stream : Yes
Defeat audio cache : Yes
Make use of C2 pointers : No
Read offset correction : 48
Overread into Lead-In and Lead-Out : No
Fill up missing offset samples with silence : Yes
Delete leading and trailing silent blocks : No
Null samples used in CRC calculations : Yes
Used interface : Native Win32 interface for Win NT & 2000
Gap handling : Appended to previous track
Used output format : User Defined Encoder
Selected bitrate : 128 kBit/s
Quality : High
Add ID3 tag : No
Command line compressor : C:\Program Files\FLAC\flac.exe
Additional command line options : -5 -V -T "ARTIST=%a" -T "TITLE=%t" -T "ALBUM=%g" -T "DATE=%y" -T "TRACKNUMBER=%n" -T "GENRE=%m" -T "COMMENT=Ripped for yetiisyou" %s
TOC of the extracted CD
Track | Start | Length | Start sector | End sector
---------------------------------------------------------
1 | 0:00.32 | 3:53.25 | 32 | 17531
2 | 3:53.57 | 4:21.53 | 17532 | 37159
3 | 8:15.35 | 4:56.40 | 37160 | 59399
4 | 13:12.00 | 6:18.72 | 59400 | 87821
5 | 19:30.72 | 3:55.13 | 87822 | 105459
6 | 23:26.10 | 3:34.60 | 105460 | 121569
7 | 27:00.70 | 4:29.20 | 121570 | 141764
8 | 31:30.15 | 4:58.05 | 141765 | 164119
9 | 36:28.20 | 3:45.60 | 164120 | 181054
10 | 40:14.05 | 3:22.15 | 181055 | 196219
11 | 43:36.20 | 4:27.42 | 196220 | 216286
12 | 48:03.62 | 3:49.45 | 216287 | 233506
13 | 51:53.32 | 5:02.28 | 233507 | 256184
14 | 56:55.60 | 5:10.47 | 256185 | 279481
15 | 62:06.32 | 5:02.55 | 279482 | 302186
16 | 67:09.12 | 3:59.38 | 302187 | 320149
17 | 71:08.50 | 4:42.50 | 320150 | 341349
Track 1
Filename E:\!Rips\FUNK @ SOUL\VA - A Tribute To Curtis Mayfield (9362 45500-2)\01 – Choice Of Colors.wav
Pre-gap length 0:00:02.42
Peak level 97.3 %
Track quality 100.0 %
Test CRC 7C556B3D
Copy CRC 7C556B3D
Accurately ripped (confidence 21) [2E6A04FB]
Copy OK
Track 2
Filename E:\!Rips\FUNK @ SOUL\VA - A Tribute To Curtis Mayfield (9362 45500-2)\02 – It's All Right!.wav
Pre-gap length 0:00:00.02
Peak level 97.3 %
Track quality 100.0 %
Test CRC 10AAC2F1
Copy CRC 10AAC2F1
Accurately ripped (confidence 23) [0BD7E730]
Copy OK
Track 3
Filename E:\!Rips\FUNK @ SOUL\VA - A Tribute To Curtis Mayfield (9362 45500-2)\03 – Let's Do It Again.wav
Pre-gap length 0:00:00.86
Peak level 97.3 %
Track quality 99.9 %
Test CRC 479FA03D
Copy CRC 479FA03D
Accurately ripped (confidence 21) [83DCD375]
Copy OK
Track 4
Filename E:\!Rips\FUNK @ SOUL\VA - A Tribute To Curtis Mayfield (9362 45500-2)\04 – Billy Jack.wav
Pre-gap length 0:00:01.26
Peak level 77.9 %
Track quality 99.9 %
Test CRC DEC33637
Copy CRC DEC33637
Accurately ripped (confidence 22) [DE685ACE]
Copy OK
Track 5
Filename E:\!Rips\FUNK @ SOUL\VA - A Tribute To Curtis Mayfield (9362 45500-2)\05 – Look Into Your Heart.wav
Pre-gap length 0:00:01.00
Peak level 97.3 %
Track quality 100.0 %
Test CRC 56AAEDBF
Copy CRC 56AAEDBF
Accurately ripped (confidence 21) [EC92749D]
Copy OK
Track 6
Filename E:\!Rips\FUNK @ SOUL\VA - A Tribute To Curtis Mayfield (9362 45500-2)\06 – Gypsy Woman.wav
Pre-gap length 0:00:00.06
Peak level 97.3 %
Track quality 100.0 %
Test CRC 64829D11
Copy CRC 64829D11
Accurately ripped (confidence 21) [F2AE8295]
Copy OK
Track 7
Filename E:\!Rips\FUNK @ SOUL\VA - A Tribute To Curtis Mayfield (9362 45500-2)\07 – You Must Believe Me.wav
Pre-gap length 0:00:00.06
Peak level 97.3 %
Track quality 100.0 %
Test CRC 141B8496
Copy CRC 141B8496
Accurately ripped (confidence 23) [97711CDA]
Copy OK
Track 8
Filename E:\!Rips\FUNK @ SOUL\VA - A Tribute To Curtis Mayfield (9362 45500-2)\08 – I'm So Proud.wav
Pre-gap length 0:00:00.20
Peak level 87.5 %
Track quality 99.8 %
Test CRC F563F81E
Copy CRC F563F81E
Accurately ripped (confidence 21) [745268BD]
Copy OK
Track 9
Filename E:\!Rips\FUNK @ SOUL\VA - A Tribute To Curtis Mayfield (9362 45500-2)\09 – Fool For You.wav
Pre-gap length 0:00:00.04
Peak level 97.3 %
Track quality 99.9 %
Test CRC AF13E11F
Copy CRC AF13E11F
Accurately ripped (confidence 21) [E6FA3E63]
Copy OK
Track 10
Filename E:\!Rips\FUNK @ SOUL\VA - A Tribute To Curtis Mayfield (9362 45500-2)\10 – Keep On Pushin'.wav
Pre-gap length 0:00:01.10
Peak level 97.3 %
Track quality 100.0 %
Test CRC FFFD7D19
Copy CRC FFFD7D19
Accurately ripped (confidence 21) [8F48F09D]
Copy OK
Track 11
Filename E:\!Rips\FUNK @ SOUL\VA - A Tribute To Curtis Mayfield (9362 45500-2)\11 – The Makings Of You.wav
Pre-gap length 0:00:00.04
Peak level 97.3 %
Track quality 100.0 %
Test CRC CCDA9453
Copy CRC CCDA9453
Accurately ripped (confidence 21) [B44FF306]
Copy OK
Track 12
Filename E:\!Rips\FUNK @ SOUL\VA - A Tribute To Curtis Mayfield (9362 45500-2)\12 – Woman's Got Soul.wav
Pre-gap length 0:00:02.22
Peak level 97.3 %
Track quality 100.0 %
Test CRC CAC71EC7
Copy CRC CAC71EC7
Accurately ripped (confidence 23) [9D694F29]
Copy OK
Track 13
Filename E:\!Rips\FUNK @ SOUL\VA - A Tribute To Curtis Mayfield (9362 45500-2)\13 – People Get Ready.wav
Pre-gap length 0:00:00.86
Peak level 93.9 %
Track quality 100.0 %
Test CRC 3AB9B4D1
Copy CRC 3AB9B4D1
Accurately ripped (confidence 23) [C0A39107]
Copy OK
Track 14
Filename E:\!Rips\FUNK @ SOUL\VA - A Tribute To Curtis Mayfield (9362 45500-2)\14 – (Don't Worry) If There's A Hell Below, We're All Going To Go.wav
Pre-gap length 0:00:02.20
Peak level 97.3 %
Track quality 100.0 %
Test CRC E0DD7467
Copy CRC E0DD7467
Accurately ripped (confidence 20) [FD824F77]
Copy OK
Track 15
Filename E:\!Rips\FUNK @ SOUL\VA - A Tribute To Curtis Mayfield (9362 45500-2)\15 – I've Been Trying.wav
Pre-gap length 0:00:00.29
Peak level 97.2 %
Track quality 100.0 %
Test CRC 65B1883D
Copy CRC 65B1883D
Accurately ripped (confidence 21) [3DFECF72]
Copy OK
Track 16
Filename E:\!Rips\FUNK @ SOUL\VA - A Tribute To Curtis Mayfield (9362 45500-2)\16 – I'm The One Who Loves You.wav
Pre-gap length 0:00:01.40
Peak level 97.2 %
Track quality 100.0 %
Test CRC 5D148983
Copy CRC 5D148983
Accurately ripped (confidence 21) [F9789272]
Copy OK
Track 17
Filename E:\!Rips\FUNK @ SOUL\VA - A Tribute To Curtis Mayfield (9362 45500-2)\17 – Amen.wav
Pre-gap length 0:00:01.69
Peak level 97.3 %
Track quality 100.0 %
Test CRC 8904297D
Copy CRC 8904297D
Accurately ripped (confidence 20) [091DC965]
Copy OK
All tracks accurately ripped
No errors occurred
End of status report
 
CUE
REM GENRE R&B
REM DATE 1994
REM DISCID EE11C711
REM COMMENT "ExactAudioCopy v0.99pb5"
PERFORMER "Various Artists"
TITLE "A Tribute To Curtis Mayfield"
FILE "01 – Choice Of Colors.wav" WAVE
TRACK 01 AUDIO
TITLE "Choice Of Colors"
PERFORMER "Gladys Knight"
PREGAP 00:00:32
INDEX 01 00:00:00
TRACK 02 AUDIO
TITLE "It's All Right!"
PERFORMER "Steve Winwood"
INDEX 00 03:53:23
FILE "02 – It's All Right!.wav" WAVE
INDEX 01 00:00:00
TRACK 03 AUDIO
TITLE "Let's Do It Again"
PERFORMER "Repercussions & Curits Mayfield"
INDEX 00 04:20:63
FILE "03 – Let's Do It Again.wav" WAVE
INDEX 01 00:00:00
TRACK 04 AUDIO
TITLE "Billy Jack"
PERFORMER "Lenny Kravitz"
INDEX 00 04:55:20
FILE "04 – Billy Jack.wav" WAVE
INDEX 01 00:00:00
TRACK 05 AUDIO
TITLE "Look Into Your Heart"
PERFORMER "Whitney Houston"
INDEX 00 06:17:72
FILE "05 – Look Into Your Heart.wav" WAVE
INDEX 01 00:00:00
TRACK 06 AUDIO
TITLE "Gypsy Woman"
PERFORMER "Bruce Springsteen"
INDEX 00 03:55:08
FILE "06 – Gypsy Woman.wav" WAVE
INDEX 01 00:00:00
TRACK 07 AUDIO
TITLE "You Must Believe Me"
PERFORMER "Eric Clapton"
INDEX 00 03:34:55
FILE "07 – You Must Believe Me.wav" WAVE
INDEX 01 00:00:00
TRACK 08 AUDIO
TITLE "I'm So Proud"
PERFORMER "Isley Brothers, The"
INDEX 00 04:29:05
FILE "08 – I'm So Proud.wav" WAVE
INDEX 01 00:00:00
TRACK 09 AUDIO
TITLE "Fool For You"
PERFORMER "Branford Marsalis & Impressions, The"
INDEX 00 04:58:02
FILE "09 – Fool For You.wav" WAVE
INDEX 01 00:00:00
TRACK 10 AUDIO
TITLE "Keep On Pushin'"
PERFORMER "Tevin Campbell"
INDEX 00 03:44:52
FILE "10 – Keep On Pushin'.wav" WAVE
INDEX 01 00:00:00
TRACK 11 AUDIO
TITLE "The Makings Of You"
PERFORMER "Aretha Franklin"
INDEX 00 03:22:12
FILE "11 – The Makings Of You.wav" WAVE
INDEX 01 00:00:00
TRACK 12 AUDIO
TITLE "Woman's Got Soul"
PERFORMER "B.B. King"
INDEX 00 04:25:25
FILE "12 – Woman's Got Soul.wav" WAVE
INDEX 01 00:00:00
TRACK 13 AUDIO
TITLE "People Get Ready"
PERFORMER "Rod Stewart"
INDEX 00 03:48:55
FILE "13 – People Get Ready.wav" WAVE
INDEX 01 00:00:00
TRACK 14 AUDIO
TITLE "(Don't Worry) If There's A Hell Below, We're All Going To Go"
PERFORMER "Narada Michael Walden"
INDEX 00 05:00:13
FILE "14 – (Don't Worry) If There's A Hell Below, We're All Going To Go.wav" WAVE
INDEX 01 00:00:00
TRACK 15 AUDIO
TITLE "I've Been Trying"
PERFORMER "Phil Collins"
INDEX 00 05:10:25
FILE "15 – I've Been Trying.wav" WAVE
INDEX 01 00:00:00
TRACK 16 AUDIO
TITLE "I'm The One Who Loves You"
PERFORMER "Stevie Wonder"
INDEX 00 05:01:25
FILE "16 – I'm The One Who Loves You.wav" WAVE
INDEX 01 00:00:00
TRACK 17 AUDIO
TITLE "Amen"
PERFORMER "Elton John & Sounds Of Blackness"
INDEX 00 03:57:61
FILE "17 – Amen.wav" WAVE
INDEX 01 00:00:00
Приватный:
Нет (DHT включён)
Размер:
493.42 Мб (517,389,810 байт) » файлов: 29
Участники:
0 раздают, 0 качают (0 участников всего)
Внешние участники:
2 раздают, 1 качают (3 участников всего) [ Обновить ]
Нет сидеров - пишите личное сообщение M0p94ok. Не нравятся торренты? Участники группы Pro-jazz Club могут заказать прямую ссылку на скачивание из облака.
No seeders - write a personal message to M0p94ok. Don't like torrents? Members of Pro-jazz Club group can order a direct download link from the cloud.
03:31
30
Нет комментариев. Ваш будет первым!