Поиск

(Funk, Disco, Soul) VA - Horse Meat Disco (Strut [STRUT046CD]) - 2009, FLAC (tracks\image+.cue), lossless

(Funk, Disco, Soul) VA - Horse Meat Disco (Strut [STRUT046CD]) - 2009, FLAC (tracks\image+.cue), lossless
Треклист:
Various Artists - Horse Meat Disco
Жанр: Funk, Disco, Soul
Год выпуска диска: 2009
Производитель диска: UK, Strut
Аудио кодек: FLAC
Тип рипа: CD2 tracks, CD1 image+.cue
Битрейт аудио: lossless
Продолжительность: 2:36:22
Трэклист:
CD1: Mixed By James Hillard, Jim Stanton, Severino & Luke Howard
01. Ribs 303 Phone Message 1:32
02. Karen Young - Deetour (Party Mix) 5:41
03. Eddie Drennon - Disco Jam 5:20
04. Empire Projecting Penny - Freakman 5:13
05 Smokey Robinson - And I Don't Love You (Larry Levan Instrumental Dub) 3:40
06 K.I.D. - Hupendi Muziki Wangu?! (You Don't Like My Music) 6:08
07 Gino Soccio - It's Alright 5:55
08 Two Tons, The - I Depend On You 5:00
09. Sheryl Lee Ralph - In The Evening 6:08
10. Gregg Diamond - Danger 5:10
11. Plaza - (Got My) Dancing Shoes 4:33
12. TJM - Put Yourself In My Place 4:16
13. Richard Hewson Orchestra, The - Love Bite 3:52
14. Laura Greene - Manhattan 4:55
15. Fern Kinney - Love Me Tonight 4:23
16. Tamiko Jones - Let It Flow 6:05
CD2: Unmixed
01. Karen Young - Deetour (Party Mix) 8:15
02. Smokey Robinson - And I Don't Love You (Larry Levan Instrumental Dub) 6:16
03. Empire Projecting Penny - Freakman 6:33
04. Eddie Drennon - Disco Jam 6:03
05. Richard Hewson Orchestra - Love Bite 4:37
06. K.I.D. - Hupendi Muziki Wangu?! (You Don't Like My Music) 8:46
07. Gino Soccio - It's Alright 7:06
08. Two Tons, The - I Depend On You 5:42
09. Plaza - (Got My) Dancing Shoes 6:27
10. Gregg Diamond - Danger 5:37
11. Sheryl Lee Ralph - In The Evening 6:19
12. Tamiko Jones - Let It Flow 6:50
 
L&C
 
c
REM GENRE Disco
REM DATE 2009
REM DISCID B812680C
REM COMMENT "ExactAudioCopy v0.99pb5"
PERFORMER "Various"
TITLE "Horse Meat Disco (2)"
FILE "Various - Horse Meat Disco (2).flac" WAVE
TRACK 01 AUDIO
TITLE "Deetour (Party Mix)"
PERFORMER "Karen Young"
INDEX 01 00:00:00
TRACK 02 AUDIO
TITLE "And I Don't Love You (Larry Levan Instrumental Mix)"
PERFORMER "Smokey Robinson"
INDEX 00 08:13:25
INDEX 01 08:15:21
TRACK 03 AUDIO
TITLE "Freakman"
PERFORMER "Empire Projecting Penny"
INDEX 00 14:29:57
INDEX 01 14:31:53
TRACK 04 AUDIO
TITLE "Disco Jam"
PERFORMER "Eddie Drennon"
INDEX 00 21:02:71
INDEX 01 21:04:67
TRACK 05 AUDIO
TITLE "Love Bite"
PERFORMER "Richard Hewson Orchestra"
INDEX 00 27:06:49
INDEX 01 27:07:58
TRACK 06 AUDIO
TITLE "Hupendi Muziki Wangu?! (You Don't Like My Music)"
PERFORMER "K.I.D."
INDEX 00 31:42:72
INDEX 01 31:44:68
TRACK 07 AUDIO
TITLE "It's Alright"
PERFORMER "Gino Soccio"
INDEX 00 40:29:70
INDEX 01 40:31:14
TRACK 08 AUDIO
TITLE "I Depend On You"
PERFORMER "The Two Tons"
INDEX 00 47:35:10
INDEX 01 47:37:06
TRACK 09 AUDIO
TITLE "(Got My) Dancing Shoes"
PERFORMER "Plaza"
INDEX 00 53:16:54
INDEX 01 53:18:50
TRACK 10 AUDIO
TITLE "Danger"
PERFORMER "Gregg Diamond"
INDEX 00 59:44:65
INDEX 01 59:46:04
TRACK 11 AUDIO
TITLE "In The Evening"
PERFORMER "Sheryl Lee Ralph"
INDEX 00 65:21:33
INDEX 01 65:23:29
TRACK 12 AUDIO
TITLE "Let It Flow"
PERFORMER "Tamiko Jones"
INDEX 00 71:40:39
INDEX 01 71:42:35
 
e
Exact Audio Copy V0.99 prebeta 5 from 4. May 2009
EAC extraction logfile from 16. January 2010, 20:40
Various / Horse Meat Disco (2)
Used drive : HP DVD Writer 1040r Adapter: 1 ID: 0
Read mode : Secure
Utilize accurate stream : Yes
Defeat audio cache : Yes
Make use of C2 pointers : No
Read offset correction : 6
Overread into Lead-In and Lead-Out : No
Fill up missing offset samples with silence : Yes
Delete leading and trailing silent blocks : No
Null samples used in CRC calculations : Yes
Used interface : Native Win32 interface for Win NT & 2000
Used output format : User Defined Encoder
Selected bitrate : 1024 kBit/s
Quality : High
Add ID3 tag : No
Command line compressor : C:\Program Files\Exact Audio Copy\FLAC\FLAC.EXE
Additional command line options : -5 -V -T "ARTIST=%a" -T "TITLE=%t" -T "ALBUM=%g" -T "DATE=%y" -T "TRACKNUMBER=%n" -T "GENRE=%m" -T "COMMENT=EAC Flac 1.1.2 -5" %s
TOC of the extracted CD
Track | Start | Length | Start sector | End sector
---------------------------------------------------------
1 | 0:00.00 | 8:15.21 | 0 | 37145
2 | 8:15.21 | 6:16.32 | 37146 | 65377
3 | 14:31.53 | 6:33.14 | 65378 | 94866
4 | 21:04.67 | 6:02.66 | 94867 | 122082
5 | 27:07.58 | 4:37.10 | 122083 | 142867
6 | 31:44.68 | 8:46.21 | 142868 | 182338
7 | 40:31.14 | 7:05.67 | 182339 | 214280
8 | 47:37.06 | 5:41.44 | 214281 | 239899
9 | 53:18.50 | 6:27.29 | 239900 | 268953
10 | 59:46.04 | 5:37.25 | 268954 | 294253
11 | 65:23.29 | 6:19.06 | 294254 | 322684
12 | 71:42.35 | 6:50.23 | 322685 | 353457
Range status and errors
Selected range
Filename C:\Users\Mike3\Desktop\Horse Meat Disco\CD2 - Unmixed\Various - Horse Meat Disco (2).wav
Peak level 100.0 %
Range quality 100.0 %
Copy CRC 7CD3FB80
Copy OK
No errors occurred
AccurateRip summary
Track 1 not present in database
Track 2 not present in database
Track 3 not present in database
Track 4 not present in database
Track 5 not present in database
Track 6 not present in database
Track 7 not present in database
Track 8 not present in database
Track 9 not present in database
Track 10 not present in database
Track 11 not present in database
Track 12 not present in database
None of the tracks are present in the AccurateRip database
End of status report
 
e
Exact Audio Copy V0.99 prebeta 5 from 4. May 2009
EAC extraction logfile from 16. January 2010, 20:12
Various / Horse Meat Disco (CD 1of2) - Mixed
Used drive : HP DVD Writer 1040r Adapter: 1 ID: 0
Read mode : Secure
Utilize accurate stream : Yes
Defeat audio cache : Yes
Make use of C2 pointers : No
Read offset correction : 6
Overread into Lead-In and Lead-Out : No
Fill up missing offset samples with silence : Yes
Delete leading and trailing silent blocks : No
Null samples used in CRC calculations : Yes
Used interface : Native Win32 interface for Win NT & 2000
Used output format : User Defined Encoder
Selected bitrate : 1024 kBit/s
Quality : High
Add ID3 tag : No
Command line compressor : C:\Program Files\Exact Audio Copy\FLAC\FLAC.EXE
Additional command line options : -5 -V -T "ARTIST=%a" -T "TITLE=%t" -T "ALBUM=%g" -T "DATE=%y" -T "TRACKNUMBER=%n" -T "GENRE=%m" -T "COMMENT=EAC Flac 1.1.2 -5" %s
TOC of the extracted CD
Track | Start | Length | Start sector | End sector
---------------------------------------------------------
1 | 0:00.00 | 1:32.02 | 0 | 6901
2 | 1:32.02 | 5:41.02 | 6902 | 32478
3 | 7:13.04 | 5:20.18 | 32479 | 56496
4 | 12:33.22 | 5:12.44 | 56497 | 79940
5 | 17:45.66 | 3:40.15 | 79941 | 96455
6 | 21:26.06 | 6:07.60 | 96456 | 124040
7 | 27:33.66 | 5:54.68 | 124041 | 150658
8 | 33:28.59 | 4:59.61 | 150659 | 173144
9 | 38:28.45 | 6:07.74 | 173145 | 200743
10 | 44:36.44 | 5:10.01 | 200744 | 223994
11 | 49:46.45 | 4:33.26 | 223995 | 244495
12 | 54:19.71 | 4:15.49 | 244496 | 263669
13 | 58:35.45 | 3:51.38 | 263670 | 281032
14 | 62:27.08 | 4:55.27 | 281033 | 303184
15 | 67:22.35 | 4:22.61 | 303185 | 322895
16 | 71:45.21 | 6:04.68 | 322896 | 350263
Range status and errors
Selected range
Filename C:\Users\Mike3\Desktop\Horse Meat Disco\CD1 - Mixed\Various - Horse Meat Disco (CD 1of2) - Mixed.wav
Peak level 100.0 %
Range quality 100.0 %
Copy CRC 2854BDA7
Copy OK
No errors occurred
AccurateRip summary
Track 1 not present in database
Track 2 not present in database
Track 3 not present in database
Track 4 not present in database
Track 5 not present in database
Track 6 not present in database
Track 7 not present in database
Track 8 not present in database
Track 9 not present in database
Track 10 not present in database
Track 11 not present in database
Track 12 not present in database
Track 13 not present in database
Track 14 not present in database
Track 15 not present in database
Track 16 not present in database
None of the tracks are present in the AccurateRip database
End of status report
 
a
AUDIOCHECKER v2.0 beta (build 457) - by Dester - opdester@freemail.hu
~~~~~~~~~~~~~~~~~~~~~~~~~~~~~~~~~~
-=== DO NOT EDIT THIS FILE! ===-
Path: ...\CD2 - Unmixed
001 -=- Various - Horse Meat Disco (2).flac -=- CDDA (100%)
152299012
 
a
AUDIOCHECKER v2.0 beta (build 457) - by Dester - opdester@freemail.hu
~~~~~~~~~~~~~~~~~~~~~~~~~~~~~~~~~~
-=== DO NOT EDIT THIS FILE! ===-
Path: ...\CD1 - Mixed
001 -=- Various - Horse Meat Disco (CD 1of2) - Mixed.flac -=- CDDA (100%)
9187972
O. ENG
Приватный:
Нет (DHT включён)
Размер:
1.06 Гб (1,138,750,674 байт) » файлов: 16
Участники:
0 раздают, 0 качают (0 участников всего)
Внешние участники:
3 раздают, 1 качают (4 участников всего) [ Обновить ]
Есть вопросы - пишите личное сообщение пользователю M0p94ok.
02:46
41
Нет комментариев. Ваш будет первым!