Поиск

(Funk, Disco, Soul, Hip Hop) VA - Disco Juice Volume 2 (Counterpoint Records [CRCD016]) - 2002, FLAC (image+.cue), lossless

(Funk, Disco, Soul, Hip Hop) VA - Disco Juice Volume 2 (Counterpoint Records [CRCD016]) - 2002, FLAC (image+.cue), lossless
Треклист:
Various Artists - Disco Juice Volume 2
Жанр: Funk, Disco, Soul, Hip Hop
Год выпуска диска: 2002
Производитель диска: UK, Counterpoint Records
Аудио кодек: FLAC
Тип рипа: image+.cue
Битрейт аудио: lossless
Продолжительность: 1:13:45
Трэклист:
1. High Fidelity - Magic Carpet 5:35
2. Florence Miller - The Groove I'm In 2:57
3. Lanier - 25 Hours 9:51
4. Ahzz - New York's Movin' 7:48
5. Margo's Kool Out Crew - Death Rap 6:09
6. Shift - Roller Rink Funk 4:37
7. Willie Wood & Willie Wood Crew - Willie Rap 5:18
8. Super-Jay - Super-Jay Love Theme 7:30
9. Jesse Henderson - I Did It Again 7:30
10. Golden Flamingo Orchestra - The Guardian Angel Is Watching Over Us 6:58
11. LaVaba & E. Mallison - Game Of Life 5:01
12. Cloud One - Dust To Dust 4:25
 
a
Exact Audio Copy V0.99 prebeta 5 from 4. May 2009
EAC extraction logfile from 17. January 2010, 21:11
Various / Disco Juice Vol. 2
Used drive : HP DVD Writer 1040r Adapter: 1 ID: 0
Read mode : Secure
Utilize accurate stream : Yes
Defeat audio cache : Yes
Make use of C2 pointers : No
Read offset correction : 6
Overread into Lead-In and Lead-Out : No
Fill up missing offset samples with silence : Yes
Delete leading and trailing silent blocks : No
Null samples used in CRC calculations : Yes
Used interface : Native Win32 interface for Win NT & 2000
Used output format : User Defined Encoder
Selected bitrate : 1024 kBit/s
Quality : High
Add ID3 tag : No
Command line compressor : C:\Program Files\Exact Audio Copy\FLAC\FLAC.EXE
Additional command line options : -5 -V -T "ARTIST=%a" -T "TITLE=%t" -T "ALBUM=%g" -T "DATE=%y" -T "TRACKNUMBER=%n" -T "GENRE=%m" -T "COMMENT=EAC Flac 1.1.2 -5" %s
TOC of the extracted CD
Track | Start | Length | Start sector | End sector
---------------------------------------------------------
1 | 0:00.00 | 5:35.30 | 0 | 25154
2 | 5:35.30 | 2:57.54 | 25155 | 38483
3 | 8:33.09 | 9:51.47 | 38484 | 82855
4 | 18:24.56 | 7:48.17 | 82856 | 117972
5 | 26:12.73 | 6:09.32 | 117973 | 145679
6 | 32:22.30 | 4:37.35 | 145680 | 166489
7 | 36:59.65 | 5:18.17 | 166490 | 190356
8 | 42:18.07 | 7:30.29 | 190357 | 224135
9 | 49:48.36 | 7:30.41 | 224136 | 257926
10 | 57:19.02 | 6:58.50 | 257927 | 289326
11 | 64:17.52 | 5:01.72 | 289327 | 311973
12 | 69:19.49 | 4:25.30 | 311974 | 331878
Range status and errors
Selected range
Filename C:\Users\Mike3\Desktop\Disco Juice Vol. 2 (Flac)\Various - Disco Juice Vol. 2.wav
Peak level 100.0 %
Range quality 100.0 %
Copy CRC 0AFA4C82
Copy OK
No errors occurred
AccurateRip summary
Track 1 accurately ripped (confidence 2) [063226DB]
Track 2 accurately ripped (confidence 2) [E10E2D98]
Track 3 accurately ripped (confidence 2) [EE991316]
Track 4 accurately ripped (confidence 2) [C4A2D5F4]
Track 5 accurately ripped (confidence 2) [8BD7347C]
Track 6 accurately ripped (confidence 2) [2906F2C2]
Track 7 accurately ripped (confidence 2) [8AFEF3DF]
Track 8 accurately ripped (confidence 2) [E237D21E]
Track 9 accurately ripped (confidence 2) [05F37FB7]
Track 10 accurately ripped (confidence 2) [2160C2E2]
Track 11 accurately ripped (confidence 2) [403AF8F0]
Track 12 accurately ripped (confidence 2) [C3A4618F]
All tracks accurately ripped
End of status report
avaxcom
Various Artists - Disco Juice
Приватный:
Нет (DHT включён)
Размер:
497.01 Мб (521,157,478 байт) » файлов: 12
Участники:
0 раздают, 0 качают (0 участников всего)
Внешние участники:
2 раздают, 1 качают (3 участников всего) [ Обновить ]
Никого нет на раздаче - пишите личное сообщение M0p94ok
No seeders - write personal message to M0p94ok
02:42
22
Нет комментариев. Ваш будет первым!