Поиск

(Funk, Disco, Breaks) VA - Disco Juice (Counterpoint Records [CRCD007]) - 2000, FLAC (image+.cue), lossless

(Funk, Disco, Breaks) VA - Disco Juice (Counterpoint Records [CRCD007]) - 2000, FLAC (image+.cue), lossless
Треклист:
Various Artists - Disco Juice
Жанр: Funk, Disco, Breaks
Год выпуска диска: 2000
Производитель диска: UK, Counterpoint Records
Аудио кодек: FLAC
Тип рипа: image+.cue
Битрейт аудио: lossless
Продолжительность: 1:17:04
Трэклист:
1. Johnson Products - Johnson Jumpin' 6:20
2. Licky - African Rock 6:23
3. Chain Reaction - Dance Freak 6:43
4. Clyde Alexander - Got To Have Your Love 7:18
5. Queen Yahna - Ain't It Time 3:59
6. L. J. Waiters - Hooked On Your Line 4:19
7. Foster Jackson Group - Feel The Spirit 3:59
8. Scott Davis - N. Y. Applejack 5:22
9. Jesse Gould - Out Of Work 6:26
10. Paper Doll - Get Down Boy 6:01
11. Cloud One - Disco Juice (Re-Edit) 8:29
12. Cloud One - Flying High 6:23
13. Cloud One - Patti Duke 5:20
 
e
Exact Audio Copy V0.99 prebeta 5 from 4. May 2009
EAC extraction logfile from 17. January 2010, 20:41
Various / Disco Juice Vol. 1
Used drive : HP DVD Writer 1040r Adapter: 1 ID: 0
Read mode : Secure
Utilize accurate stream : Yes
Defeat audio cache : Yes
Make use of C2 pointers : No
Read offset correction : 6
Overread into Lead-In and Lead-Out : No
Fill up missing offset samples with silence : Yes
Delete leading and trailing silent blocks : No
Null samples used in CRC calculations : Yes
Used interface : Native Win32 interface for Win NT & 2000
Used output format : User Defined Encoder
Selected bitrate : 1024 kBit/s
Quality : High
Add ID3 tag : No
Command line compressor : C:\Program Files\Exact Audio Copy\FLAC\FLAC.EXE
Additional command line options : -5 -V -T "ARTIST=%a" -T "TITLE=%t" -T "ALBUM=%g" -T "DATE=%y" -T "TRACKNUMBER=%n" -T "GENRE=%m" -T "COMMENT=EAC Flac 1.1.2 -5" %s
TOC of the extracted CD
Track | Start | Length | Start sector | End sector
---------------------------------------------------------
1 | 0:00.00 | 6:03.62 | 0 | 27286
2 | 6:03.62 | 6:24.45 | 27287 | 56131
3 | 12:28.32 | 6:45.45 | 56132 | 86551
4 | 19:14.02 | 7:20.50 | 86552 | 119601
5 | 26:34.52 | 3:51.33 | 119602 | 136959
6 | 30:26.10 | 4:21.10 | 136960 | 156544
7 | 34:47.20 | 4:01.67 | 156545 | 174686
8 | 38:49.12 | 5:24.45 | 174687 | 199031
9 | 44:13.57 | 6:27.73 | 199032 | 228129
10 | 50:41.55 | 6:02.32 | 228130 | 255311
11 | 56:44.12 | 8:31.10 | 255312 | 293646
12 | 65:15.22 | 6:25.13 | 293647 | 322534
13 | 71:40.35 | 5:23.60 | 322535 | 346819
Range status and errors
Selected range
Filename C:\Users\Mike3\Desktop\Disco Juice Vol. 1 (Flac)\Various - Disco Juice Vol. 1.wav
Peak level 99.7 %
Range quality 100.0 %
Copy CRC 9A5CC084
Copy OK
No errors occurred
AccurateRip summary
Track 1 accurately ripped (confidence 3) [2F52A01F]
Track 2 accurately ripped (confidence 3) [947DF3C2]
Track 3 accurately ripped (confidence 3) [E975FAC9]
Track 4 accurately ripped (confidence 3) [0F516734]
Track 5 accurately ripped (confidence 3) [CB45E48C]
Track 6 accurately ripped (confidence 3) [1ED63580]
Track 7 accurately ripped (confidence 3) [39A7A551]
Track 8 accurately ripped (confidence 3) [E140A64B]
Track 9 accurately ripped (confidence 3) [745239B3]
Track 10 accurately ripped (confidence 3) [9C976E76]
Track 11 accurately ripped (confidence 3) [B0B5857C]
Track 12 accurately ripped (confidence 3) [C1E44E59]
Track 13 accurately ripped (confidence 3) [72E8ACBA]
All tracks accurately ripped
End of status report
avaxcom
Various Artists - Disco Juice Volume 2
Приватный:
Нет (DHT включён)
Размер:
551.62 Мб (578,415,891 байт) » файлов: 12
Участники:
0 раздают, 0 качают (0 участников всего)
Внешние участники:
2 раздают, 1 качают (3 участников всего) [ Обновить ]
Нет сидеров - пишите личное сообщение M0p94ok. Не нравятся торренты? Участники группы Pro-jazz Club могут заказать прямую ссылку на скачивание из облака.
No seeders - write a personal message to M0p94ok. Don't like torrents? Members of Pro-jazz Club group can order a direct download link from the cloud.
02:42
23
Нет комментариев. Ваш будет первым!