Поиск

(Funk) The Brothers Johnson - Strawberry Letter 23 Live (CLP 1435-2) (remaster 2005) - 1977, FLAC (tracks+.cue), lossless

(Funk) The Brothers Johnson - Strawberry Letter 23 Live (CLP 1435-2) (remaster 2005) - 1977, FLAC (tracks+.cue), lossless
Треклист:
The Brothers Johnson - Strawberry Letter 23 Live
Жанр: Funk
Год выпуска диска: 1977 (remaster 2005)
Производитель диска: Goldenlane Records
Аудио кодек: FLAC
Тип рипа: tracks+.cue
Битрейт аудио: lossless
Продолжительность: 52 min 26 sec
1. Opening Instrumental (3:15)
2. Ain't We Funkin' Now (5:02)
3. I'll Be Good To You (5:33)
4. Thunder Thumbs & Lightnin' Licks (2:20)
5. Land Of Ladies (7:13)
6. Family Affair (3:01)
7. If You Want Me To Stay (2:35)
8. Strawberry Letter 23 (5:44)
9. Get The Funk Out Of Ma Face (3:52)
10. Instrumental (2:40)
11. Word Up (1:57)
12. Bass & Drum Solo (1:06)
13. Stomp (8:08)

Собственноручный рип с оригинального диска от funky_cat!
DVD HERE
 
Log EAC
Exact Audio Copy V0.99 prebeta 5 from 4. May 2009
EAC extraction logfile from 6. March 2010, 13:40
The Brothers Johnson / Strawberry Letter 23 Live
Used drive : ASUS CB-5216A Adapter: 0 ID: 1
Read mode : Secure
Utilize accurate stream : Yes
Defeat audio cache : Yes
Make use of C2 pointers : No
Read offset correction : 6
Overread into Lead-In and Lead-Out : No
Fill up missing offset samples with silence : Yes
Delete leading and trailing silent blocks : No
Null samples used in CRC calculations : Yes
Used interface : Native Win32 interface for Win NT & 2000
Gap handling : Appended to previous track
Used output format : User Defined Encoder
Selected bitrate : 320 kBit/s
Quality : High
Add ID3 tag : No
Command line compressor : C:\Program Files\FLAC\flac.exe
Additional command line options : -5 -V -T "ARTIST=%a" -T "TITLE=%t" -T "ALBUM=%g" -T "DATE=%y" -T "TRACKNUMBER=%n" -T "GENRE=%m" -T "COMMENT=Ripped By andygrakoff aka yetiisyou" %s
TOC of the extracted CD
Track | Start | Length | Start sector | End sector
---------------------------------------------------------
1 | 0:00.00 | 3:15.61 | 0 | 14685
2 | 3:15.61 | 5:02.71 | 14686 | 37406
3 | 8:18.57 | 5:33.19 | 37407 | 62400
4 | 13:52.01 | 2:20.08 | 62401 | 72908
5 | 16:12.09 | 7:13.06 | 72909 | 105389
6 | 23:25.15 | 3:01.57 | 105390 | 119021
7 | 26:26.72 | 2:35.24 | 119022 | 130670
8 | 29:02.21 | 5:44.37 | 130671 | 156507
9 | 34:46.58 | 3:52.65 | 156508 | 173972
10 | 38:39.48 | 2:40.40 | 173973 | 186012
11 | 41:20.13 | 1:57.48 | 186013 | 194835
12 | 43:17.61 | 1:06.71 | 194836 | 199856
13 | 44:24.57 | 8:08.22 | 199857 | 236478
Track 1
Filename E:\!Rips\FUNK @ SOUL\The Brothers Johnson - Strawberry Letter 23 Live\CD 1\01. The Brothers Johnson – Opening Instrumental.wav
Pre-gap length 0:00:02.00
Peak level 80.9 %
Track quality 100.0 %
Test CRC 3109E678
Copy CRC 3109E678
Cannot be verified as accurate (confidence 1) [DF691BD0], AccurateRip returned [D9DEE4E0]
Copy OK
Track 2
Filename E:\!Rips\FUNK @ SOUL\The Brothers Johnson - Strawberry Letter 23 Live\CD 1\02. The Brothers Johnson – Ain't We Funkin' Now.wav
Peak level 94.1 %
Track quality 100.0 %
Test CRC 96FA445F
Copy CRC 96FA445F
Cannot be verified as accurate (confidence 1) [8AD78CE7], AccurateRip returned [7B771BA7]
Copy OK
Track 3
Filename E:\!Rips\FUNK @ SOUL\The Brothers Johnson - Strawberry Letter 23 Live\CD 1\03. The Brothers Johnson – I'll Be Good To You.wav
Peak level 99.4 %
Track quality 100.0 %
Test CRC 92DB65FA
Copy CRC 92DB65FA
Cannot be verified as accurate (confidence 1) [5856FF4C], AccurateRip returned [E18F57B0]
Copy OK
Track 4
Filename E:\!Rips\FUNK @ SOUL\The Brothers Johnson - Strawberry Letter 23 Live\CD 1\04. The Brothers Johnson – Thunder Thumbs & Lightnin' Licks.wav
Peak level 86.0 %
Track quality 99.9 %
Test CRC 6371B080
Copy CRC 6371B080
Cannot be verified as accurate (confidence 1) [E3DAAD32], AccurateRip returned [2FB59776]
Copy OK
Track 5
Filename E:\!Rips\FUNK @ SOUL\The Brothers Johnson - Strawberry Letter 23 Live\CD 1\05. The Brothers Johnson – Land Of Ladies.wav
Peak level 85.5 %
Track quality 100.0 %
Test CRC 02D929C2
Copy CRC 02D929C2
Cannot be verified as accurate (confidence 1) [A510A749], AccurateRip returned [F25731F7]
Copy OK
Track 6
Filename E:\!Rips\FUNK @ SOUL\The Brothers Johnson - Strawberry Letter 23 Live\CD 1\06. The Brothers Johnson – Family Affair.wav
Peak level 85.3 %
Track quality 100.0 %
Test CRC 5770A0B1
Copy CRC 5770A0B1
Cannot be verified as accurate (confidence 1) [FA456DFD], AccurateRip returned [7C818753]
Copy OK
Track 7
Filename E:\!Rips\FUNK @ SOUL\The Brothers Johnson - Strawberry Letter 23 Live\CD 1\07. The Brothers Johnson – If You Want Me To Stay.wav
Peak level 85.3 %
Track quality 100.0 %
Test CRC 0B8FD3F1
Copy CRC 0B8FD3F1
Cannot be verified as accurate (confidence 1) [E2F52FA2], AccurateRip returned [7136D396]
Copy OK
Track 8
Filename E:\!Rips\FUNK @ SOUL\The Brothers Johnson - Strawberry Letter 23 Live\CD 1\08. The Brothers Johnson – Strawberry Letter 23.wav
Peak level 86.6 %
Track quality 100.0 %
Test CRC 25B92E63
Copy CRC 25B92E63
Cannot be verified as accurate (confidence 1) [C6D69D0B], AccurateRip returned [5F64409B]
Copy OK
Track 9
Filename E:\!Rips\FUNK @ SOUL\The Brothers Johnson - Strawberry Letter 23 Live\CD 1\09. The Brothers Johnson – Get The Funk Out Of Ma Face.wav
Peak level 90.6 %
Track quality 100.0 %
Test CRC A483C546
Copy CRC A483C546
Cannot be verified as accurate (confidence 1) [47E97890], AccurateRip returned [7C80447E]
Copy OK
Track 10
Filename E:\!Rips\FUNK @ SOUL\The Brothers Johnson - Strawberry Letter 23 Live\CD 1\10. The Brothers Johnson – Instrumental.wav
Peak level 84.5 %
Track quality 99.9 %
Test CRC 431A763A
Copy CRC 431A763A
Cannot be verified as accurate (confidence 1) [251C20A7], AccurateRip returned [C64A0143]
Copy OK
Track 11
Filename E:\!Rips\FUNK @ SOUL\The Brothers Johnson - Strawberry Letter 23 Live\CD 1\11. The Brothers Johnson – Word Up.wav
Peak level 80.6 %
Track quality 100.0 %
Test CRC A11EDB3B
Copy CRC A11EDB3B
Cannot be verified as accurate (confidence 1) [D800A017], AccurateRip returned [F2362891]
Copy OK
Track 12
Filename E:\!Rips\FUNK @ SOUL\The Brothers Johnson - Strawberry Letter 23 Live\CD 1\12. The Brothers Johnson – Bass & Drum Solo.wav
Peak level 85.9 %
Track quality 100.0 %
Test CRC A8EDBCD3
Copy CRC A8EDBCD3
Cannot be verified as accurate (confidence 1) [AE13CF3F], AccurateRip returned [CDFF6B5B]
Copy OK
Track 13
Filename E:\!Rips\FUNK @ SOUL\The Brothers Johnson - Strawberry Letter 23 Live\CD 1\13. The Brothers Johnson – Stomp.wav
Peak level 89.5 %
Track quality 100.0 %
Test CRC C499CE20
Copy CRC C499CE20
Cannot be verified as accurate (confidence 1) [2C742D46], AccurateRip returned [D85DAE36]
Copy OK
No tracks could be verified as accurate
You may have a different pressing from the one(s) in the database
No errors occurred
End of status report
 
CUE
REM GENRE Funk
REM DATE 2005
REM DISCID C40C510D
REM COMMENT "ExactAudioCopy v0.99pb5"
PERFORMER "The Brothers Johnson"
TITLE "Strawberry Letter 23 Live"
FILE "01. The Brothers Johnson – Opening Instrumental.wav" WAVE
TRACK 01 AUDIO
TITLE "Opening Instrumental"
PERFORMER "The Brothers Johnson"
INDEX 01 00:00:00
FILE "02. The Brothers Johnson – Ain't We Funkin' Now.wav" WAVE
TRACK 02 AUDIO
TITLE "Ain't We Funkin' Now"
PERFORMER "The Brothers Johnson"
INDEX 01 00:00:00
FILE "03. The Brothers Johnson – I'll Be Good To You.wav" WAVE
TRACK 03 AUDIO
TITLE "I'll Be Good To You"
PERFORMER "The Brothers Johnson"
INDEX 01 00:00:00
FILE "04. The Brothers Johnson – Thunder Thumbs & Lightnin' Licks.wav" WAVE
TRACK 04 AUDIO
TITLE "Thunder Thumbs & Lightnin' Licks"
PERFORMER "The Brothers Johnson"
INDEX 01 00:00:00
FILE "05. The Brothers Johnson – Land Of Ladies.wav" WAVE
TRACK 05 AUDIO
TITLE "Land Of Ladies"
PERFORMER "The Brothers Johnson"
INDEX 01 00:00:00
FILE "06. The Brothers Johnson – Family Affair.wav" WAVE
TRACK 06 AUDIO
TITLE "Family Affair"
PERFORMER "The Brothers Johnson"
INDEX 01 00:00:00
FILE "07. The Brothers Johnson – If You Want Me To Stay.wav" WAVE
TRACK 07 AUDIO
TITLE "If You Want Me To Stay"
PERFORMER "The Brothers Johnson"
INDEX 01 00:00:00
FILE "08. The Brothers Johnson – Strawberry Letter 23.wav" WAVE
TRACK 08 AUDIO
TITLE "Strawberry Letter 23"
PERFORMER "The Brothers Johnson"
INDEX 01 00:00:00
FILE "09. The Brothers Johnson – Get The Funk Out Of Ma Face.wav" WAVE
TRACK 09 AUDIO
TITLE "Get The Funk Out Of Ma Face"
PERFORMER "The Brothers Johnson"
INDEX 01 00:00:00
FILE "10. The Brothers Johnson – Instrumental.wav" WAVE
TRACK 10 AUDIO
TITLE "Instrumental"
PERFORMER "The Brothers Johnson"
INDEX 01 00:00:00
FILE "11. The Brothers Johnson – Word Up.wav" WAVE
TRACK 11 AUDIO
TITLE "Word Up"
PERFORMER "The Brothers Johnson"
INDEX 01 00:00:00
FILE "12. The Brothers Johnson – Bass & Drum Solo.wav" WAVE
TRACK 12 AUDIO
TITLE "Bass & Drum Solo"
PERFORMER "The Brothers Johnson"
INDEX 01 00:00:00
FILE "13. The Brothers Johnson – Stomp.wav" WAVE
TRACK 13 AUDIO
TITLE "Stomp"
PERFORMER "The Brothers Johnson"
INDEX 01 00:00:00
Приватный:
Нет (DHT включён)
Размер:
380.13 Мб (398,599,574 байт) » файлов: 23
Участники:
0 раздают, 0 качают (0 участников всего)
Внешние участники:
--- [ Обновить ]
Никого нет на раздаче - пишите личное сообщение M0p94ok
No seeders - write personal message to M0p94ok
03:27
18
Нет комментариев. Ваш будет первым!