Поиск

(Funk, Soul) The Bar-Kays - Money Talks (SCD24 4106-2) - 1978, FLAC (tracks+.cue), lossless

(Funk, Soul) The Bar-Kays - Money Talks (SCD24 4106-2) - 1978, FLAC (tracks+.cue), lossless
Треклист:
The Bar-Kays - Money Talks
Жанр: Funk, Soul
Год выпуска диска: 1978 (remaster 2004)
Производитель диска: EMI Records
Аудио кодек: FLAC
Тип рипа: tracks+.cue
Битрейт аудио: lossless
Продолжительность: 00:34:35
1. Bar-Kays - Holy Ghost (3:58)
2. Bar-Kays - Feelin' Alright (4:58)
3. Bar-Kays - Monster (6:55)
4. Bar-Kays - Money Talks (6:53)
5. Bar-Kays - Mean Mistreater (5:47)
6. Bar-Kays - Holy Ghost (Reborn) (6:04)
Собственноручный рип с оригинального диска от funky_cat!
 
Log EAC
Exact Audio Copy V0.99 prebeta 5 from 4. May 2009
EAC extraction logfile from 12. March 2010, 20:08
Bar-Kays / Money Talks
Used drive : ASUS DRW-1608P2 Adapter: 0 ID: 0
Read mode : Secure
Utilize accurate stream : Yes
Defeat audio cache : Yes
Make use of C2 pointers : No
Read offset correction : 48
Overread into Lead-In and Lead-Out : No
Fill up missing offset samples with silence : Yes
Delete leading and trailing silent blocks : No
Null samples used in CRC calculations : Yes
Used interface : Native Win32 interface for Win NT & 2000
Gap handling : Appended to previous track
Used output format : User Defined Encoder
Selected bitrate : 1024 kBit/s
Quality : High
Add ID3 tag : No
Command line compressor : C:\Program Files\FLAC\flac.exe
Additional command line options : -5 -V -T "ARTIST=%a" -T "TITLE=%t" -T "ALBUM=%g" -T "DATE=%y" -T "TRACKNUMBER=%n" -T "GENRE=%m" -T "COMMENT=Ripped for yetiisyou" %s
TOC of the extracted CD
Track | Start | Length | Start sector | End sector
---------------------------------------------------------
1 | 0:00.00 | 3:58.60 | 0 | 17909
2 | 3:58.60 | 4:58.71 | 17910 | 40330
3 | 8:57.56 | 6:55.00 | 40331 | 71455
4 | 15:52.56 | 6:53.73 | 71456 | 102503
5 | 22:46.54 | 5:47.40 | 102504 | 128568
6 | 28:34.19 | 6:04.70 | 128569 | 155938
Track 1
Filename E:\!Rips\FUNK @ SOUL\The Bar-Kays - Money Talks (SCD24 4106-2)\01 – Holy Ghost.wav
Pre-gap length 0:00:02.00
Peak level 85.0 %
Track quality 100.0 %
Test CRC D846B458
Copy CRC D846B458
Track not present in AccurateRip database
Copy OK
Track 2
Filename E:\!Rips\FUNK @ SOUL\The Bar-Kays - Money Talks (SCD24 4106-2)\02 – Feelin' Alright.wav
Pre-gap length 0:00:02.00
Peak level 94.7 %
Track quality 100.0 %
Test CRC 849383BC
Copy CRC 849383BC
Track not present in AccurateRip database
Copy OK
Track 3
Filename E:\!Rips\FUNK @ SOUL\The Bar-Kays - Money Talks (SCD24 4106-2)\03 – Monster.wav
Pre-gap length 0:00:02.00
Peak level 85.0 %
Track quality 100.0 %
Test CRC D7673217
Copy CRC D7673217
Track not present in AccurateRip database
Copy OK
Track 4
Filename E:\!Rips\FUNK @ SOUL\The Bar-Kays - Money Talks (SCD24 4106-2)\04 – Money Talks.wav
Pre-gap length 0:00:02.00
Peak level 80.7 %
Track quality 100.0 %
Test CRC 0AFC22A3
Copy CRC 0AFC22A3
Track not present in AccurateRip database
Copy OK
Track 5
Filename E:\!Rips\FUNK @ SOUL\The Bar-Kays - Money Talks (SCD24 4106-2)\05 – Mean Mistreater.wav
Pre-gap length 0:00:02.00
Peak level 94.9 %
Track quality 100.0 %
Test CRC 76F0EE03
Copy CRC 76F0EE03
Track not present in AccurateRip database
Copy OK
Track 6
Filename E:\!Rips\FUNK @ SOUL\The Bar-Kays - Money Talks (SCD24 4106-2)\06 – Holy Ghost (Reborn).wav
Pre-gap length 0:00:02.00
Peak level 85.8 %
Track quality 99.9 %
Test CRC F8062B39
Copy CRC F8062B39
Track not present in AccurateRip database
Copy OK
None of the tracks are present in the AccurateRip database
No errors occurred
End of status report
 
CUE
REM GENRE Soul
REM DATE 1978
REM DISCID 4C081F06
REM COMMENT "ExactAudioCopy v0.99pb5"
PERFORMER "Bar-Kays"
TITLE "Money Talks"
FILE "01 – Holy Ghost.wav" WAVE
TRACK 01 AUDIO
TITLE "Holy Ghost"
PERFORMER "Bar-Kays"
INDEX 01 00:00:00
TRACK 02 AUDIO
TITLE "Feelin' Alright"
PERFORMER "Bar-Kays"
INDEX 00 03:56:60
FILE "02 – Feelin' Alright.wav" WAVE
INDEX 01 00:00:00
TRACK 03 AUDIO
TITLE "Monster"
PERFORMER "Bar-Kays"
INDEX 00 04:56:71
FILE "03 – Monster.wav" WAVE
INDEX 01 00:00:00
TRACK 04 AUDIO
TITLE "Money Talks"
PERFORMER "Bar-Kays"
INDEX 00 06:53:00
FILE "04 – Money Talks.wav" WAVE
INDEX 01 00:00:00
TRACK 05 AUDIO
TITLE "Mean Mistreater"
PERFORMER "Bar-Kays"
INDEX 00 06:51:73
FILE "05 – Mean Mistreater.wav" WAVE
INDEX 01 00:00:00
TRACK 06 AUDIO
TITLE "Holy Ghost (Reborn)"
PERFORMER "Bar-Kays"
INDEX 00 05:45:40
FILE "06 – Holy Ghost (Reborn).wav" WAVE
INDEX 01 00:00:00
Приватный:
Нет (DHT включён)
Размер:
221.46 Мб (232,222,217 байт) » файлов: 15
Участники:
0 раздают, 0 качают (0 участников всего)
Внешние участники:
5 раздают, 2 качают (7 участников всего) [ Обновить ]
Никого нет на раздаче - пишите личное сообщение M0p94ok
No seeders - write personal message to M0p94ok
03:27
22
Нет комментариев. Ваш будет первым!