Поиск

(Funk, Soul) T-Connection - Pure & Natural (EMI #072435787712) (2004 remaster) - 2004, FLAC (tracks+.cue), lossless

(Funk, Soul) T-Connection - Pure & Natural (EMI #072435787712) (2004 remaster) - 2004, FLAC (tracks+.cue), lossless
Треклист:
T-Connection - Pure & Natural
Жанр: Funk, Soul
Год выпуска диска: 1981-1982 (2004 remaster)
Производитель диска: EMI Records
Аудио кодек: FLAC
Тип рипа: tracks+.cue
Битрейт аудио: lossless
Продолжительность: 39 min 46 sec
1. T-Connection - Girl watching (4:53)
2. T-Connection - Party night (5:07)
3. T-Connection - A little more love (4:49)
4. T-Connection - Slippin' away (4:33)
5. T-Connection - Might as well dance (5:16)
6. T-Connection - Rushing trough the crowd (4:08)
7. T-Connection - The best of my love (6:21)
8. T-Connection - Goombay time (4:39)
Собственноручный рип с оригинального диска от funky_cat!
 
Log EAC
Exact Audio Copy V0.99 prebeta 5 from 4. May 2009
EAC extraction logfile from 7. March 2010, 21:17
T-Connection / Pure and natural
Used drive : ASUS DRW-1608P2 Adapter: 0 ID: 0
Read mode : Secure
Utilize accurate stream : Yes
Defeat audio cache : Yes
Make use of C2 pointers : No
Read offset correction : 48
Overread into Lead-In and Lead-Out : No
Fill up missing offset samples with silence : Yes
Delete leading and trailing silent blocks : No
Null samples used in CRC calculations : Yes
Used interface : Native Win32 interface for Win NT & 2000
Gap handling : Appended to previous track
Used output format : User Defined Encoder
Selected bitrate : 320 kBit/s
Quality : High
Add ID3 tag : No
Command line compressor : C:\Program Files\FLAC\flac.exe
Additional command line options : -5 -V -T "ARTIST=%a" -T "TITLE=%t" -T "ALBUM=%g" -T "DATE=%y" -T "TRACKNUMBER=%n" -T "GENRE=%m" -T "COMMENT=Ripped By andygrakoff aka yetiisyou" %s
TOC of the extracted CD
Track | Start | Length | Start sector | End sector
---------------------------------------------------------
1 | 0:00.00 | 4:53.05 | 0 | 21979
2 | 4:53.05 | 5:07.18 | 21980 | 45022
3 | 10:00.23 | 4:49.45 | 45023 | 66742
4 | 14:49.68 | 4:33.47 | 66743 | 87264
5 | 19:23.40 | 5:16.14 | 87265 | 110978
6 | 24:39.54 | 4:08.55 | 110979 | 129633
7 | 28:48.34 | 6:21.20 | 129634 | 158228
8 | 35:09.54 | 4:39.32 | 158229 | 179185
9 | 42:21.11 | 31:36.64 | 190586 | 332849
Track 1
Filename E:\!Rips\FUNK @ SOUL\T-Connection - Pure & Natural (1982) (EMI #072435787712)\01 – Girl watching.wav
Pre-gap length 0:00:02.00
Peak level 89.9 %
Track quality 100.0 %
Test CRC 90CBB45C
Copy CRC 90CBB45C
Cannot be verified as accurate (confidence 1) [25C419C2], AccurateRip returned [2C7699B4]
Copy OK
Track 2
Filename E:\!Rips\FUNK @ SOUL\T-Connection - Pure & Natural (1982) (EMI #072435787712)\02 – Party night.wav
Peak level 93.9 %
Track quality 100.0 %
Test CRC C6EE14EF
Copy CRC C6EE14EF
Cannot be verified as accurate (confidence 1) [0A4756A5], AccurateRip returned [EA5AAF04]
Copy OK
Track 3
Filename E:\!Rips\FUNK @ SOUL\T-Connection - Pure & Natural (1982) (EMI #072435787712)\03 – A little more love.wav
Peak level 86.1 %
Track quality 100.0 %
Test CRC 6DCD31FE
Copy CRC 6DCD31FE
Track not present in AccurateRip database
Copy OK
Track 4
Filename E:\!Rips\FUNK @ SOUL\T-Connection - Pure & Natural (1982) (EMI #072435787712)\04 – Slippin' away.wav
Peak level 90.0 %
Track quality 99.9 %
Test CRC 72AEBA2C
Copy CRC 72AEBA2C
Cannot be verified as accurate (confidence 1) [80BCD14A], AccurateRip returned [D2A9E411]
Copy OK
Track 5
Filename E:\!Rips\FUNK @ SOUL\T-Connection - Pure & Natural (1982) (EMI #072435787712)\05 – Might as well dance.wav
Peak level 98.3 %
Track quality 100.0 %
Test CRC E1CA0C67
Copy CRC E1CA0C67
Track not present in AccurateRip database
Copy OK
Track 6
Filename E:\!Rips\FUNK @ SOUL\T-Connection - Pure & Natural (1982) (EMI #072435787712)\06 – Rushing trough the crowd.wav
Peak level 96.6 %
Track quality 99.9 %
Test CRC 3A8077CB
Copy CRC 3A8077CB
Cannot be verified as accurate (confidence 2) [A5239D61], AccurateRip returned [F85D8C88]
Copy OK
Track 7
Filename E:\!Rips\FUNK @ SOUL\T-Connection - Pure & Natural (1982) (EMI #072435787712)\07 – The best of my love.wav
Peak level 86.0 %
Track quality 100.0 %
Test CRC 32962B44
Copy CRC 32962B44
Cannot be verified as accurate (confidence 2) [34DB9B01], AccurateRip returned [FA3211C2]
Copy OK
Track 8
Filename E:\!Rips\FUNK @ SOUL\T-Connection - Pure & Natural (1982) (EMI #072435787712)\08 – Goombay time.wav
Peak level 90.5 %
Track quality 100.0 %
Test CRC 444D79FD
Copy CRC 444D79FD
Cannot be verified as accurate (confidence 2) [583BAF49], AccurateRip returned [3D878384]
Copy OK
6 track(s) could not be verified as accurate
2 track(s) not present in the AccurateRip database
No tracks could be verified as accurate
You may have a different pressing from the one(s) in the database
No errors occurred
End of status report
 
CUE
REM GENRE "Funk  Disco-Funk"
REM DATE 1982
REM DISCID 65115609
REM COMMENT "ExactAudioCopy v0.99pb5"
PERFORMER "T-Connection"
TITLE "Pure and natural"
FILE "01 – Girl watching.wav" WAVE
TRACK 01 AUDIO
TITLE "Girl watching"
PERFORMER "T-Connection"
INDEX 01 00:00:00
FILE "02 – Party night.wav" WAVE
TRACK 02 AUDIO
TITLE "Party night"
PERFORMER "T-Connection"
INDEX 01 00:00:00
FILE "03 – A little more love.wav" WAVE
TRACK 03 AUDIO
TITLE "A little more love"
PERFORMER "T-Connection"
INDEX 01 00:00:00
FILE "04 – Slippin' away.wav" WAVE
TRACK 04 AUDIO
TITLE "Slippin' away"
PERFORMER "T-Connection"
INDEX 01 00:00:00
FILE "05 – Might as well dance.wav" WAVE
TRACK 05 AUDIO
TITLE "Might as well dance"
PERFORMER "T-Connection"
INDEX 01 00:00:00
FILE "06 – Rushing trough the crowd.wav" WAVE
TRACK 06 AUDIO
TITLE "Rushing trough the crowd"
PERFORMER "T-Connection"
INDEX 01 00:00:00
FILE "07 – The best of my love.wav" WAVE
TRACK 07 AUDIO
TITLE "The best of my love"
PERFORMER "T-Connection"
INDEX 01 00:00:00
FILE "08 – Goombay time.wav" WAVE
TRACK 08 AUDIO
TITLE "Goombay time"
PERFORMER "T-Connection"
INDEX 01 00:00:00
Приватный:
Нет (DHT включён)
Размер:
281.97 Мб (295,662,539 байт) » файлов: 19
Участники:
0 раздают, 0 качают (0 участников всего)
Внешние участники:
--- [ Обновить ]
Никого нет на раздаче - пишите личное сообщение M0p94ok
No seeders - write personal message to M0p94ok
03:26
19
Нет комментариев. Ваш будет первым!