Поиск

(Funk, Soul) Sun - Wanna Make Love (072435711782) (2004 remaster) - 1976, FLAC (tracks+.cue), lossless

(Funk, Soul) Sun - Wanna Make Love (072435711782) (2004 remaster) - 1976, FLAC (tracks+.cue), lossless
Треклист:
Sun - Wanna Make Love
Жанр: Funk, Soul
Год выпуска диска: 1976 (2004 remaster)
Производитель диска: EMI Records
Аудио кодек: FLAC
Тип рипа: tracks+.cue
Битрейт аудио: lossless
Продолжительность: 00:40:47
1. Sun - Live On Dream On (4:52)
2. Sun - Tell The People (3:13)
3. Sun - My Woman (5:11)
4. Sun - They're Calling For More (7:06)
5. Sun - Wanna Make Love (3:30)
6. Sun - Love Is Never Sure (4:47)
7. Sun - The Show Is Over (3:53)
8. Sun - It's Killing Me (4:15)
9. Sun - Give Your Love To Me (4:00)
Собственноручный рип с оригинального диска от funky_cat!
 
Log EAC
Exact Audio Copy V0.99 prebeta 5 from 4. May 2009
EAC extraction logfile from 8. March 2010, 12:52
Sun / Wanna Make Love
Used drive : ASUS DRW-1608P2 Adapter: 0 ID: 0
Read mode : Secure
Utilize accurate stream : Yes
Defeat audio cache : Yes
Make use of C2 pointers : No
Read offset correction : 48
Overread into Lead-In and Lead-Out : No
Fill up missing offset samples with silence : Yes
Delete leading and trailing silent blocks : No
Null samples used in CRC calculations : Yes
Used interface : Native Win32 interface for Win NT & 2000
Gap handling : Appended to previous track
Used output format : User Defined Encoder
Selected bitrate : 320 kBit/s
Quality : High
Add ID3 tag : No
Command line compressor : C:\Program Files\FLAC\flac.exe
Additional command line options : -5 -V -T "ARTIST=%a" -T "TITLE=%t" -T "ALBUM=%g" -T "DATE=%y" -T "TRACKNUMBER=%n" -T "GENRE=%m" -T "COMMENT=Ripped By andygrakoff aka yetiisyou" %s
TOC of the extracted CD
Track | Start | Length | Start sector | End sector
---------------------------------------------------------
1 | 0:00.33 | 4:52.23 | 33 | 21955
2 | 4:52.56 | 3:13.11 | 21956 | 36441
3 | 8:05.67 | 5:11.02 | 36442 | 59768
4 | 13:16.69 | 7:06.17 | 59769 | 91735
5 | 20:23.11 | 3:30.20 | 91736 | 107505
6 | 23:53.31 | 4:47.00 | 107506 | 129030
7 | 28:40.31 | 3:53.03 | 129031 | 146508
8 | 32:33.34 | 4:15.73 | 146509 | 165706
9 | 36:49.32 | 4:00.46 | 165707 | 183752
10 | 43:22.03 | 30:35.72 | 195153 | 332849
Track 1
Filename E:\!Rips\FUNK @ SOUL\Sun - Wanna Make Love 1976 (072435711782) 2004\01 – Live On Dream On.wav
Pre-gap length 0:00:02.44
Peak level 100.0 %
Track quality 100.0 %
Test CRC 9B02E060
Copy CRC 9B02E060
Cannot be verified as accurate (confidence 1) [9F9383C4], AccurateRip returned [DABEC2E4]
Copy OK
Track 2
Filename E:\!Rips\FUNK @ SOUL\Sun - Wanna Make Love 1976 (072435711782) 2004\02 – Tell The People.wav
Peak level 100.0 %
Track quality 100.0 %
Test CRC 3A79E95D
Copy CRC 3A79E95D
Cannot be verified as accurate (confidence 1) [CB921776], AccurateRip returned [82A0C85E]
Copy OK
Track 3
Filename E:\!Rips\FUNK @ SOUL\Sun - Wanna Make Love 1976 (072435711782) 2004\03 – My Woman.wav
Peak level 100.0 %
Track quality 100.0 %
Test CRC 9CE8C795
Copy CRC 9CE8C795
Cannot be verified as accurate (confidence 1) [170BFE9F], AccurateRip returned [597F4913]
Copy OK
Track 4
Filename E:\!Rips\FUNK @ SOUL\Sun - Wanna Make Love 1976 (072435711782) 2004\04 – They're Calling For More.wav
Peak level 100.0 %
Track quality 100.0 %
Test CRC 49C33CDF
Copy CRC 49C33CDF
Cannot be verified as accurate (confidence 1) [B2429E8A], AccurateRip returned [BE78F245]
Copy OK
Track 5
Filename E:\!Rips\FUNK @ SOUL\Sun - Wanna Make Love 1976 (072435711782) 2004\05 – Wanna Make Love.wav
Peak level 100.0 %
Track quality 100.0 %
Test CRC E793AF67
Copy CRC E793AF67
Cannot be verified as accurate (confidence 1) [F4BCA2B8], AccurateRip returned [A2EA00CB]
Copy OK
Track 6
Filename E:\!Rips\FUNK @ SOUL\Sun - Wanna Make Love 1976 (072435711782) 2004\06 – Love Is Never Sure.wav
Peak level 100.0 %
Track quality 100.0 %
Test CRC FE6A9BC4
Copy CRC FE6A9BC4
Cannot be verified as accurate (confidence 1) [42CD8981], AccurateRip returned [01CB165E]
Copy OK
Track 7
Filename E:\!Rips\FUNK @ SOUL\Sun - Wanna Make Love 1976 (072435711782) 2004\07 – The Show Is Over.wav
Peak level 100.0 %
Track quality 100.0 %
Test CRC 01DD6FEE
Copy CRC 01DD6FEE
Cannot be verified as accurate (confidence 1) [48AEDFE3], AccurateRip returned [731A60E5]
Copy OK
Track 8
Filename E:\!Rips\FUNK @ SOUL\Sun - Wanna Make Love 1976 (072435711782) 2004\08 – It's Killing Me.wav
Peak level 100.0 %
Track quality 100.0 %
Test CRC D51958EC
Copy CRC D51958EC
Cannot be verified as accurate (confidence 1) [87326EC0], AccurateRip returned [1BA47E64]
Copy OK
Track 9
Filename E:\!Rips\FUNK @ SOUL\Sun - Wanna Make Love 1976 (072435711782) 2004\09 – Give Your Love To Me.wav
Peak level 100.0 %
Track quality 100.0 %
Test CRC 063BEFF7
Copy CRC 063BEFF7
Cannot be verified as accurate (confidence 1) [EAB4C6E6], AccurateRip returned [40050214]
Copy OK
No tracks could be verified as accurate
You may have a different pressing from the one(s) in the database
No errors occurred
End of status report
 
CUE
REM DATE 1976
REM DISCID 8511560A
REM COMMENT "ExactAudioCopy v0.99pb5"
PERFORMER "Sun"
TITLE "Wanna Make Love"
FILE "01 – Live On Dream On.wav" WAVE
TRACK 01 AUDIO
TITLE "Live On Dream On"
PERFORMER "Sun"
PREGAP 00:00:33
INDEX 01 00:00:00
FILE "02 – Tell The People.wav" WAVE
TRACK 02 AUDIO
TITLE "Tell The People"
PERFORMER "Sun"
INDEX 01 00:00:00
FILE "03 – My Woman.wav" WAVE
TRACK 03 AUDIO
TITLE "My Woman"
PERFORMER "Sun"
INDEX 01 00:00:00
FILE "04 – They're Calling For More.wav" WAVE
TRACK 04 AUDIO
TITLE "They're Calling For More"
PERFORMER "Sun"
INDEX 01 00:00:00
FILE "05 – Wanna Make Love.wav" WAVE
TRACK 05 AUDIO
TITLE "Wanna Make Love"
PERFORMER "Sun"
INDEX 01 00:00:00
FILE "06 – Love Is Never Sure.wav" WAVE
TRACK 06 AUDIO
TITLE "Love Is Never Sure"
PERFORMER "Sun"
INDEX 01 00:00:00
FILE "07 – The Show Is Over.wav" WAVE
TRACK 07 AUDIO
TITLE "The Show Is Over"
PERFORMER "Sun"
INDEX 01 00:00:00
FILE "08 – It's Killing Me.wav" WAVE
TRACK 08 AUDIO
TITLE "It's Killing Me"
PERFORMER "Sun"
INDEX 01 00:00:00
FILE "09 – Give Your Love To Me.wav" WAVE
TRACK 09 AUDIO
TITLE "Give Your Love To Me"
PERFORMER "Sun"
INDEX 01 00:00:00
Приватный:
Нет (DHT включён)
Размер:
291.81 Мб (305,986,049 байт) » файлов: 20
Участники:
0 раздают, 0 качают (0 участников всего)
Внешние участники:
3 раздают, 1 качают (4 участников всего) [ Обновить ]
Нет сидеров - пишите личное сообщение M0p94ok. Не нравятся торренты? Участники группы Pro-jazz Club могут заказать прямую ссылку на скачивание из облака.
No seeders - write a personal message to M0p94ok. Don't like torrents? Members of Pro-jazz Club group can order a direct download link from the cloud.
03:25
21
Нет комментариев. Ваш будет первым!