Поиск

(Acid Jazz, Funk) Stanton Moore - Emphasis! (On Parenthesis) - 2008, FLAC (tracks+.cue), lossless

(Acid Jazz, Funk) Stanton Moore - Emphasis! (On Parenthesis) - 2008, FLAC (tracks+.cue), lossless
Треклист:
Stanton Moore - Emphasis! (On Parenthesis)
Жанр: Acid Jazz, Funk
Год выпуска диска: 2008
Производитель диска: USA
Аудио кодек: FLAC
Тип рипа: tracks+.cue
Битрейт аудио: lossless
Продолжительность: 46:53:04
Трэклист:
1 (Late Night at The) Maple Leaf [6:27]
2 (Proper) Gander [2:56]
3 Wissions (Of Vu) [3:22]
4 (Sifting Through The) African Diaspora [5:09]
5 Over (Compensatin') [4:37]
6 (Smell My) Special Ingredients [5:39]
7 (I Have) Super Strength [3:48]
8 (Who Ate The) Layer Cake? [4:28]
9 Thanks! (Again) [2:57]
10 (Put on Your) Big People Shoes [4:07]
11 (Here Come) The Brown Police [3:19]
Состав:
Stanton Moore: drums;
Will Bernard: guitar;
Robert Walter: Hammond B3, piano, toy piano and clavinet;
Michael Skinkus: shakere (6);
Robert Wilmott Walter: vocals (7).
Рип найден в сети.
 
EAC extraction logfile
Exact Audio Copy V0.99 prebeta 4 from 23. January 2008
EAC extraction logfile from 9. March 2009, 20:03
Stanton Moore / Emphasis on parenthesis
Used drive : PLEXTOR DVDR PX-760A Adapter: 4 ID: 1
Read mode : Secure
Utilize accurate stream : Yes
Defeat audio cache : Yes
Make use of C2 pointers : No
Read offset correction : 30
Overread into Lead-In and Lead-Out : No
Fill up missing offset samples with silence : Yes
Delete leading and trailing silent blocks : No
Null samples used in CRC calculations : Yes
Used interface : Native Win32 interface for Win NT & 2000
Gap handling : Appended to previous track
Used output format : User Defined Encoder
Selected bitrate : 768 kBit/s
Quality : High
Add ID3 tag : No
Command line compressor : C:\Program Files\Exact Audio Copy\FLAC\FLAC.EXE
Additional command line options : -8 -V -T "ARTIST=%a" -T "TITLE=%t" -T "ALBUM=%g" -T "DATE=%y" -T "TRACKNUMBER=%n" -T "TOTALTRACKS=%x" -T "GENRE=%m" -T "ALBUMARTIST=%v" -T "ALBUM ARTIST=%v" -T "COMMENT=EAC V0.99 prebeta 4, Secure Mode, Test & Copy, Accurat
TOC of the extracted CD
Track | Start | Length | Start sector | End sector
---------------------------------------------------------
1 | 0:00.00 | 6:27.07 | 0 | 29031
2 | 6:27.07 | 2:56.09 | 29032 | 42240
3 | 9:23.16 | 3:22.34 | 42241 | 57424
4 | 12:45.50 | 5:09.74 | 57425 | 80673
5 | 17:55.49 | 4:37.11 | 80674 | 101459
6 | 22:32.60 | 5:39.12 | 101460 | 126896
7 | 28:11.72 | 3:48.35 | 126897 | 144031
8 | 32:00.32 | 4:28.06 | 144032 | 164137
9 | 36:28.38 | 2:57.12 | 164138 | 177424
10 | 39:25.50 | 4:07.41 | 177425 | 195990
11 | 43:33.16 | 3:19.63 | 195991 | 210978
Track 1
Filename M:\to upload\5\Stanton Moore - Emphasis (on Parenthesis) (2008) [FLAC]\1\01 - (late night at the) Maple Leaf.wav
Pre-gap length 0:00:02.00
Peak level 100.0 %
Track quality 100.0 %
Test CRC 9ACE3E12
Copy CRC 9ACE3E12
Track not present in AccurateRip database
Copy OK
Track 2
Filename M:\to upload\5\Stanton Moore - Emphasis (on Parenthesis) (2008) [FLAC]\1\02 - (proper) Gander.wav
Peak level 100.0 %
Track quality 100.0 %
Test CRC 10C8F62C
Copy CRC 10C8F62C
Track not present in AccurateRip database
Copy OK
Track 3
Filename M:\to upload\5\Stanton Moore - Emphasis (on Parenthesis) (2008) [FLAC]\1\03 - Wissions (of vu).wav
Peak level 100.0 %
Track quality 100.0 %
Test CRC FEEED176
Copy CRC FEEED176
Track not present in AccurateRip database
Copy OK
Track 4
Filename M:\to upload\5\Stanton Moore - Emphasis (on Parenthesis) (2008) [FLAC]\1\04 - (sifting through the) African Diaspora.wav
Peak level 100.0 %
Track quality 100.0 %
Test CRC 54EA9F6A
Copy CRC 54EA9F6A
Track not present in AccurateRip database
Copy OK
Track 5
Filename M:\to upload\5\Stanton Moore - Emphasis (on Parenthesis) (2008) [FLAC]\1\05 - Over (Compensatin).wav
Peak level 89.7 %
Track quality 100.0 %
Test CRC D26E768B
Copy CRC D26E768B
Track not present in AccurateRip database
Copy OK
Track 6
Filename M:\to upload\5\Stanton Moore - Emphasis (on Parenthesis) (2008) [FLAC]\1\06 - (smell my) Special Ingredients.wav
Peak level 100.0 %
Track quality 100.0 %
Test CRC 6F2BB80D
Copy CRC 6F2BB80D
Track not present in AccurateRip database
Copy OK
Track 7
Filename M:\to upload\5\Stanton Moore - Emphasis (on Parenthesis) (2008) [FLAC]\1\07 - (I have) Super Strength.wav
Peak level 100.0 %
Track quality 99.9 %
Test CRC E15FAF01
Copy CRC E15FAF01
Track not present in AccurateRip database
Copy OK
Track 8
Filename M:\to upload\5\Stanton Moore - Emphasis (on Parenthesis) (2008) [FLAC]\1\08 - (who ate the) Layer Cake.wav
Peak level 100.0 %
Track quality 100.0 %
Test CRC 91CFCA45
Copy CRC 91CFCA45
Track not present in AccurateRip database
Copy OK
Track 9
Filename M:\to upload\5\Stanton Moore - Emphasis (on Parenthesis) (2008) [FLAC]\1\09 - Thanks! (again).wav
Peak level 96.6 %
Track quality 100.0 %
Test CRC BFD25AD1
Copy CRC BFD25AD1
Track not present in AccurateRip database
Copy OK
Track 10
Filename M:\to upload\5\Stanton Moore - Emphasis (on Parenthesis) (2008) [FLAC]\1\10 - (put on your) Big People Shoes.wav
Peak level 100.0 %
Track quality 100.0 %
Test CRC 75292A3A
Copy CRC 75292A3A
Track not present in AccurateRip database
Copy OK
Track 11
Filename M:\to upload\5\Stanton Moore - Emphasis (on Parenthesis) (2008) [FLAC]\1\11 - (here come) The Brown Police.wav
Peak level 100.0 %
Track quality 100.0 %
Test CRC 9B6F50AA
Copy CRC 9B6F50AA
Track not present in AccurateRip database
Copy OK
None of the tracks are present in the AccurateRip database
No errors occurred
End of status report
 
Audiochecker logfile
Started at: пятница, 19. 03. 2010. - 10:14.31
11 files found
01 -===- D:\TEMP\Images\1\Stanton Moore - Emphasis on parenthesis\01 - (late night at the) Maple Leaf.flac
Extracted successfully
Conclusion: this track is CDDA with probability 100%
Tempfile successfully deleted.
02 -===- D:\TEMP\Images\1\Stanton Moore - Emphasis on parenthesis\02 - (proper) Gander.flac
Extracted successfully
Conclusion: this track is CDDA with probability 100%
Tempfile successfully deleted.
03 -===- D:\TEMP\Images\1\Stanton Moore - Emphasis on parenthesis\03 - Wissions (of vu).flac
Extracted successfully
Conclusion: this track is CDDA with probability 100%
Tempfile successfully deleted.
04 -===- D:\TEMP\Images\1\Stanton Moore - Emphasis on parenthesis\04 - (sifting through the) African Diaspora.flac
Extracted successfully
Conclusion: this track is CDDA with probability 100%
Tempfile successfully deleted.
05 -===- D:\TEMP\Images\1\Stanton Moore - Emphasis on parenthesis\05 - Over (Compensatin).flac
Extracted successfully
Conclusion: this track is CDDA with probability 100%
Tempfile successfully deleted.
06 -===- D:\TEMP\Images\1\Stanton Moore - Emphasis on parenthesis\06 - (smell my) Special Ingredients.flac
Extracted successfully
Conclusion: this track is CDDA with probability 99%
Tempfile successfully deleted.
07 -===- D:\TEMP\Images\1\Stanton Moore - Emphasis on parenthesis\07 - (I have) Super Strength.flac
Extracted successfully
Conclusion: this track is CDDA with probability 100%
Tempfile successfully deleted.
08 -===- D:\TEMP\Images\1\Stanton Moore - Emphasis on parenthesis\08 - (who ate the) Layer Cake.flac
Extracted successfully
Conclusion: this track is CDDA with probability 100%
Tempfile successfully deleted.
09 -===- D:\TEMP\Images\1\Stanton Moore - Emphasis on parenthesis\09 - Thanks! (again).flac
Extracted successfully
Conclusion: this track is CDDA with probability 100%
Tempfile successfully deleted.
10 -===- D:\TEMP\Images\1\Stanton Moore - Emphasis on parenthesis\10 - (put on your) Big People Shoes.flac
Extracted successfully
Conclusion: this track is CDDA with probability 100%
Tempfile successfully deleted.
11 -===- D:\TEMP\Images\1\Stanton Moore - Emphasis on parenthesis\11 - (here come) The Brown Police.flac
Extracted successfully
Conclusion: this track is CDDA with probability 100%
Tempfile successfully deleted.
Finished at: пятница, 19. 03. 2010. - 10:20.23 (operation time: 0:05.51)
 
CUE
REM GENRE Jazz
REM DATE 2008
REM DISCID A30AFD0B
REM COMMENT "ExactAudioCopy v0.99pb4"
PERFORMER "Stanton Moore"
TITLE "Emphasis on parenthesis"
FILE "01 - (late night at the) Maple Leaf.wav" WAVE
TRACK 01 AUDIO
TITLE "(late night at the) Maple Leaf "
PERFORMER "Stanton Moore"
FLAGS DCP
INDEX 01 00:00:00
FILE "02 - (proper) Gander.wav" WAVE
TRACK 02 AUDIO
TITLE "(proper) Gander "
PERFORMER "Stanton Moore"
FLAGS DCP
INDEX 01 00:00:00
FILE "03 - Wissions (of vu).wav" WAVE
TRACK 03 AUDIO
TITLE "Wissions (of vu) "
PERFORMER "Stanton Moore"
FLAGS DCP
INDEX 01 00:00:00
FILE "04 - (sifting through the) African Diaspora.wav" WAVE
TRACK 04 AUDIO
TITLE "(sifting through the) African Diaspora "
PERFORMER "Stanton Moore"
FLAGS DCP
INDEX 01 00:00:00
FILE "05 - Over (Compensatin).wav" WAVE
TRACK 05 AUDIO
TITLE "Over (Compensatin) "
PERFORMER "Stanton Moore"
FLAGS DCP
INDEX 01 00:00:00
FILE "06 - (smell my) Special Ingredients.wav" WAVE
TRACK 06 AUDIO
TITLE "(smell my) Special Ingredients "
PERFORMER "Stanton Moore"
FLAGS DCP
INDEX 01 00:00:00
FILE "07 - (I have) Super Strength.wav" WAVE
TRACK 07 AUDIO
TITLE "(I have) Super Strength "
PERFORMER "Stanton Moore"
FLAGS DCP
INDEX 01 00:00:00
FILE "08 - (who ate the) Layer Cake.wav" WAVE
TRACK 08 AUDIO
TITLE "(who ate the) Layer Cake"
PERFORMER "Stanton Moore"
FLAGS DCP
INDEX 01 00:00:00
FILE "09 - Thanks! (again).wav" WAVE
TRACK 09 AUDIO
TITLE "Thanks! (again) "
PERFORMER "Stanton Moore"
FLAGS DCP
INDEX 01 00:00:00
FILE "10 - (put on your) Big People Shoes.wav" WAVE
TRACK 10 AUDIO
TITLE "(put on your) Big People Shoes "
PERFORMER "Stanton Moore"
FLAGS DCP
INDEX 01 00:00:00
FILE "11 - (here come) The Brown Police.wav" WAVE
TRACK 11 AUDIO
TITLE "(here come) The Brown Police "
PERFORMER "Stanton Moore"
FLAGS DCP
INDEX 01 00:00:00
Ух, а драйву, драйву-то скока! Предпрослушка Приятных впечатлений!
Приватный:
Нет (DHT включён)
Размер:
271.36 Мб (284,542,637 байт) » файлов: 16
Участники:
0 раздают, 0 качают (0 участников всего)
Внешние участники:
2 раздают, 1 качают (3 участников всего) [ Обновить ]
Никого нет на раздаче - пишите личное сообщение M0p94ok
No seeders - write personal message to M0p94ok
03:25
15
Нет комментариев. Ваш будет первым!