Поиск

(Funk, Soul) Sly & The Family Stone - Backtracks (Cranch 16) - 1999, FLAC (tracks+.cue), lossless

(Funk, Soul) Sly & The Family Stone - Backtracks (Cranch 16) - 1999, FLAC (tracks+.cue), lossless
Треклист:
Sly & The Family Stone - Backtracks
Жанр: Funk, Soul
Год выпуска диска: 1999
Производитель диска: UK \ RENAISSANCE
Аудио кодек: FLAC
Тип рипа: tracks+.cue
Битрейт аудио: lossless
Продолжительность: 00:34:11
1. It Takes All Kinds (2:59)
2. Who Is To Say (2:52)
3. Remember Who You Are (3:17)
4. Back On The Right Track (3:22)
5. If It's Not Adding Up (2:44)
6. Same Thing (2:39)
7. Seventh Son (2:19)
8. Swim (2:16)
9. Honest (2:58)
10. Nerves (2:31)
11. Every Dog Has His Day (2:14)
12. Buttermilk Pt. 1 (2:12)
13. Buttermilk Pt. 2 (1:48)
Собственноручный рип с оригинального диска от funky_cat!
 
Log EAC
Exact Audio Copy V0.99 prebeta 5 from 4. May 2009
EAC extraction logfile from 11. March 2010, 22:02
Sly & The Family Stone / Backtracks
Used drive : ASUS DRW-1608P2 Adapter: 0 ID: 0
Read mode : Secure
Utilize accurate stream : Yes
Defeat audio cache : Yes
Make use of C2 pointers : No
Read offset correction : 48
Overread into Lead-In and Lead-Out : No
Fill up missing offset samples with silence : Yes
Delete leading and trailing silent blocks : No
Null samples used in CRC calculations : Yes
Used interface : Native Win32 interface for Win NT & 2000
Gap handling : Appended to previous track
Used output format : User Defined Encoder
Selected bitrate : 1024 kBit/s
Quality : High
Add ID3 tag : No
Command line compressor : C:\Program Files\FLAC\flac.exe
Additional command line options : -5 -V -T "ARTIST=%a" -T "TITLE=%t" -T "ALBUM=%g" -T "DATE=%y" -T "TRACKNUMBER=%n" -T "GENRE=%m" -T "COMMENT=Ripped for yetiisyou" %s
TOC of the extracted CD
Track | Start | Length | Start sector | End sector
---------------------------------------------------------
1 | 0:00.00 | 2:59.60 | 0 | 13484
2 | 2:59.60 | 2:52.28 | 13485 | 26412
3 | 5:52.13 | 3:17.15 | 26413 | 41202
4 | 9:09.28 | 3:22.07 | 41203 | 56359
5 | 12:31.35 | 2:44.28 | 56360 | 68687
6 | 15:15.63 | 2:39.72 | 68688 | 80684
7 | 17:55.60 | 2:19.45 | 80685 | 91154
8 | 20:15.30 | 2:16.10 | 91155 | 101364
9 | 22:31.40 | 2:58.25 | 101365 | 114739
10 | 25:29.65 | 2:31.33 | 114740 | 126097
11 | 28:01.23 | 2:14.30 | 126098 | 136177
12 | 30:15.53 | 2:12.10 | 136178 | 146087
13 | 32:27.63 | 1:48.45 | 146088 | 154232
Track 1
Filename E:\!Rips\FUNK @ SOUL\Sly & The Family Stone - Backtracks (Cranch 16)\01 – It Takes All Kinds.wav
Pre-gap length 0:00:02.00
Peak level 98.4 %
Track quality 100.0 %
Test CRC 8168B39F
Copy CRC 8168B39F
Track not present in AccurateRip database
Copy OK
Track 2
Filename E:\!Rips\FUNK @ SOUL\Sly & The Family Stone - Backtracks (Cranch 16)\02 – Who Is To Say.wav
Peak level 98.5 %
Track quality 100.0 %
Test CRC 8BCFF281
Copy CRC 8BCFF281
Track not present in AccurateRip database
Copy OK
Track 3
Filename E:\!Rips\FUNK @ SOUL\Sly & The Family Stone - Backtracks (Cranch 16)\03 – Remember Who You Are.wav
Peak level 98.0 %
Track quality 100.0 %
Test CRC 3E716555
Copy CRC 3E716555
Track not present in AccurateRip database
Copy OK
Track 4
Filename E:\!Rips\FUNK @ SOUL\Sly & The Family Stone - Backtracks (Cranch 16)\04 – Back On The Right Track.wav
Peak level 100.0 %
Track quality 100.0 %
Test CRC A960E868
Copy CRC A960E868
Track not present in AccurateRip database
Copy OK
Track 5
Filename E:\!Rips\FUNK @ SOUL\Sly & The Family Stone - Backtracks (Cranch 16)\05 – If It's Not Adding Up.wav
Peak level 97.9 %
Track quality 99.9 %
Test CRC F9D9DF43
Copy CRC F9D9DF43
Track not present in AccurateRip database
Copy OK
Track 6
Filename E:\!Rips\FUNK @ SOUL\Sly & The Family Stone - Backtracks (Cranch 16)\06 – Same Thing.wav
Peak level 98.6 %
Track quality 100.0 %
Test CRC 3826E108
Copy CRC 3826E108
Track not present in AccurateRip database
Copy OK
Track 7
Filename E:\!Rips\FUNK @ SOUL\Sly & The Family Stone - Backtracks (Cranch 16)\07 – Seventh Son.wav
Peak level 99.7 %
Track quality 100.0 %
Test CRC 2BE8AABA
Copy CRC 2BE8AABA
Track not present in AccurateRip database
Copy OK
Track 8
Filename E:\!Rips\FUNK @ SOUL\Sly & The Family Stone - Backtracks (Cranch 16)\08 – Swim.wav
Peak level 98.7 %
Track quality 99.9 %
Test CRC 0017CC26
Copy CRC 0017CC26
Track not present in AccurateRip database
Copy OK
Track 9
Filename E:\!Rips\FUNK @ SOUL\Sly & The Family Stone - Backtracks (Cranch 16)\09 – Honest.wav
Peak level 91.3 %
Track quality 99.9 %
Test CRC 483165C7
Copy CRC 483165C7
Track not present in AccurateRip database
Copy OK
Track 10
Filename E:\!Rips\FUNK @ SOUL\Sly & The Family Stone - Backtracks (Cranch 16)\10 – Nerves.wav
Peak level 100.0 %
Track quality 99.9 %
Test CRC 1570D1CE
Copy CRC 1570D1CE
Track not present in AccurateRip database
Copy OK
Track 11
Filename E:\!Rips\FUNK @ SOUL\Sly & The Family Stone - Backtracks (Cranch 16)\11 – Every Dog Has His Day.wav
Peak level 99.9 %
Track quality 100.0 %
Test CRC 26CA755C
Copy CRC 26CA755C
Track not present in AccurateRip database
Copy OK
Track 12
Filename E:\!Rips\FUNK @ SOUL\Sly & The Family Stone - Backtracks (Cranch 16)\12 – Buttermilk Pt. 1.wav
Peak level 95.3 %
Track quality 100.0 %
Test CRC 33676D89
Copy CRC 33676D89
Track not present in AccurateRip database
Copy OK
Track 13
Filename E:\!Rips\FUNK @ SOUL\Sly & The Family Stone - Backtracks (Cranch 16)\13 – Buttermilk Pt. 2.wav
Peak level 89.0 %
Track quality 99.9 %
Test CRC 782DF596
Copy CRC 782DF596
Track not present in AccurateRip database
Copy OK
None of the tracks are present in the AccurateRip database
No errors occurred
End of status report
 
CUE
REM DATE 1999
REM DISCID AD08080D
REM COMMENT "ExactAudioCopy v0.99pb5"
PERFORMER "Sly & The Family Stone"
TITLE "Backtracks"
FILE "01 – It Takes All Kinds.wav" WAVE
TRACK 01 AUDIO
TITLE "It Takes All Kinds"
PERFORMER "Sly & The Family Stone"
INDEX 01 00:00:00
FILE "02 – Who Is To Say.wav" WAVE
TRACK 02 AUDIO
TITLE "Who Is To Say"
PERFORMER "Sly & The Family Stone"
INDEX 01 00:00:00
FILE "03 – Remember Who You Are.wav" WAVE
TRACK 03 AUDIO
TITLE "Remember Who You Are"
PERFORMER "Sly & The Family Stone"
INDEX 01 00:00:00
FILE "04 – Back On The Right Track.wav" WAVE
TRACK 04 AUDIO
TITLE "Back On The Right Track"
PERFORMER "Sly & The Family Stone"
INDEX 01 00:00:00
FILE "05 – If It's Not Adding Up.wav" WAVE
TRACK 05 AUDIO
TITLE "If It's Not Adding Up"
PERFORMER "Sly & The Family Stone"
INDEX 01 00:00:00
FILE "06 – Same Thing.wav" WAVE
TRACK 06 AUDIO
TITLE "Same Thing"
PERFORMER "Sly & The Family Stone"
INDEX 01 00:00:00
FILE "07 – Seventh Son.wav" WAVE
TRACK 07 AUDIO
TITLE "Seventh Son"
PERFORMER "Sly & The Family Stone"
INDEX 01 00:00:00
FILE "08 – Swim.wav" WAVE
TRACK 08 AUDIO
TITLE "Swim"
PERFORMER "Sly & The Family Stone"
INDEX 01 00:00:00
FILE "09 – Honest.wav" WAVE
TRACK 09 AUDIO
TITLE "Honest"
PERFORMER "Sly & The Family Stone"
INDEX 01 00:00:00
FILE "10 – Nerves.wav" WAVE
TRACK 10 AUDIO
TITLE "Nerves"
PERFORMER "Sly & The Family Stone"
INDEX 01 00:00:00
FILE "11 – Every Dog Has His Day.wav" WAVE
TRACK 11 AUDIO
TITLE "Every Dog Has His Day"
PERFORMER "Sly & The Family Stone"
INDEX 01 00:00:00
FILE "12 – Buttermilk Pt. 1.wav" WAVE
TRACK 12 AUDIO
TITLE "Buttermilk Pt. 1"
PERFORMER "Sly & The Family Stone"
INDEX 01 00:00:00
FILE "13 – Buttermilk Pt. 2.wav" WAVE
TRACK 13 AUDIO
TITLE "Buttermilk Pt. 2"
PERFORMER "Sly & The Family Stone"
INDEX 01 00:00:00
Приватный:
Нет (DHT включён)
Размер:
224.64 Мб (235,555,697 байт) » файлов: 19
Участники:
0 раздают, 0 качают (0 участников всего)
Внешние участники:
2 раздают, 1 качают (3 участников всего) [ Обновить ]
Нет сидеров - пишите личное сообщение M0p94ok. Не нравятся торренты? Участники группы Pro-jazz Club могут заказать прямую ссылку на скачивание из облака.
No seeders - write a personal message to M0p94ok. Don't like torrents? Members of Pro-jazz Club group can order a direct download link from the cloud.
03:24
22
Нет комментариев. Ваш будет первым!