Поиск

(Funk, Soul) Detroit Emeralds - Do Me Right + You Want It You Got It (CDSEWD 067) - 1993, FLAC (tracks+.cue), lossless

(Funk, Soul) Detroit Emeralds - Do Me Right + You Want It You Got It (CDSEWD 067) - 1993, FLAC (tracks+.cue), lossless
Треклист:
Detroit Emeralds - Do Me Right + You Want It You Got It
Жанр: Funk, Soul
Год выпуска диска: 1971\1972 (remaster 1993)
Производитель диска: Wesbound Records
Аудио кодек: FLAC
Тип рипа: tracks+.cue
Битрейт аудио: lossless
Продолжительность: 00:68:04

DO ME RIGHT (1971)
1. Do Me Right (2:50)
2. Wear This Ring (With Love) (3:13)
3. Long Live The King (3:29)
4. What You Gonna Do About Me (3:18)
5. You Can't Take This Love For You (3:14)
6. Just Now And Then (3:21)
7. Lee (2:48)
8. If I Lose Your Love (3:14)
9. And I Love Her (3:14)
10. I Can't See Myself(Doing Without You) (3:20)
11. Holding On (2:38)
12. Admit Your Love Is Gone (3:14)
YOU WANT IT YOU GOT IT (1972)
13. You Want It You Got It (3:01)
14. There's Love For Me Somewhere (2:25)
15. I'll Never Sail The Seas Again (3:52)
16. Take My Love (4:01)
17. Feel The Need In Me (3:41)
18. I've Got To Move On (3:09)
19. Baby Let Me Take You In My Arms (3:50)
20. I Bet You Get The One You Love (2:13)
21. Till You Decide To Come Home (2:52)
22. Radio Promo (1:07)

Собственноручный рип с оригинального диска от funky_cat!
 
Log EAC
Exact Audio Copy V0.99 prebeta 5 from 4. May 2009
EAC extraction logfile from 8. March 2010, 18:20
The Detroit Emeralds / Do Me Right/You Want It You Got It
Used drive : ASUS CB-5216A Adapter: 0 ID: 1
Read mode : Secure
Utilize accurate stream : Yes
Defeat audio cache : Yes
Make use of C2 pointers : No
Read offset correction : 6
Overread into Lead-In and Lead-Out : No
Fill up missing offset samples with silence : Yes
Delete leading and trailing silent blocks : No
Null samples used in CRC calculations : Yes
Used interface : Native Win32 interface for Win NT & 2000
Gap handling : Appended to previous track
Used output format : User Defined Encoder
Selected bitrate : 320 kBit/s
Quality : High
Add ID3 tag : No
Command line compressor : C:\Program Files\FLAC\flac.exe
Additional command line options : -5 -V -T "ARTIST=%a" -T "TITLE=%t" -T "ALBUM=%g" -T "DATE=%y" -T "TRACKNUMBER=%n" -T "GENRE=%m" -T "COMMENT=Ripped By andygrakoff aka yetiisyou" %s
TOC of the extracted CD
Track | Start | Length | Start sector | End sector
---------------------------------------------------------
1 | 0:00.33 | 2:50.55 | 33 | 12837
2 | 2:51.13 | 3:13.37 | 12838 | 27349
3 | 6:04.50 | 3:29.53 | 27350 | 43077
4 | 9:34.28 | 3:18.37 | 43078 | 57964
5 | 12:52.65 | 3:14.45 | 57965 | 72559
6 | 16:07.35 | 3:21.70 | 72560 | 87704
7 | 19:29.30 | 2:48.20 | 87705 | 100324
8 | 22:17.50 | 3:14.10 | 100325 | 114884
9 | 25:31.60 | 3:14.33 | 114885 | 129467
10 | 28:46.18 | 3:20.30 | 129468 | 144497
11 | 32:06.48 | 2:38.57 | 144498 | 156404
12 | 34:45.30 | 3:14.30 | 156405 | 170984
13 | 37:59.60 | 3:01.53 | 170985 | 184612
14 | 41:01.38 | 2:25.15 | 184613 | 195502
15 | 43:26.53 | 3:52.10 | 195503 | 212912
16 | 47:18.63 | 4:01.15 | 212913 | 231002
17 | 51:20.03 | 3:41.70 | 231003 | 247647
18 | 55:01.73 | 3:09.10 | 247648 | 261832
19 | 58:11.08 | 3:50.27 | 261833 | 279109
20 | 62:01.35 | 2:13.20 | 279110 | 289104
21 | 64:14.55 | 2:52.30 | 289105 | 302034
22 | 67:07.10 | 1:07.43 | 302035 | 307102
Track 1
Filename E:\!Rips\FUNK @ SOUL\The Detroit Emeralds - Do Me Right , You Want It You Got It (CDSEWD 067)\01 – Do Me Right.wav
Pre-gap length 0:00:02.44
Peak level 88.5 %
Track quality 100.0 %
Test CRC 750487B2
Copy CRC 750487B2
Cannot be verified as accurate (confidence 2) [E9C4B19A], AccurateRip returned [1BA3EEB2]
Copy OK
Track 2
Filename E:\!Rips\FUNK @ SOUL\The Detroit Emeralds - Do Me Right , You Want It You Got It (CDSEWD 067)\02 – Wear This Ring (With Love).wav
Pre-gap length 0:00:02.40
Peak level 89.4 %
Track quality 100.0 %
Test CRC F18DE933
Copy CRC F18DE933
Cannot be verified as accurate (confidence 2) [D25B7781], AccurateRip returned [429590A1]
Copy OK
Track 3
Filename E:\!Rips\FUNK @ SOUL\The Detroit Emeralds - Do Me Right , You Want It You Got It (CDSEWD 067)\03 – Long Live The King.wav
Pre-gap length 0:00:02.02
Peak level 89.4 %
Track quality 100.0 %
Test CRC BB66AF31
Copy CRC BB66AF31
Cannot be verified as accurate (confidence 2) [081DF4FF], AccurateRip returned [C6951477]
Copy OK
Track 4
Filename E:\!Rips\FUNK @ SOUL\The Detroit Emeralds - Do Me Right , You Want It You Got It (CDSEWD 067)\04 – What You Gonna Do About Me.wav
Pre-gap length 0:00:01.60
Peak level 90.0 %
Track quality 100.0 %
Test CRC EF4D0AEC
Copy CRC EF4D0AEC
Cannot be verified as accurate (confidence 2) [F1142CA2], AccurateRip returned [F021A97A]
Copy OK
Track 5
Filename E:\!Rips\FUNK @ SOUL\The Detroit Emeralds - Do Me Right , You Want It You Got It (CDSEWD 067)\05 – You Can't Take This Love For You.wav
Pre-gap length 0:00:02.09
Peak level 87.8 %
Track quality 99.9 %
Test CRC 51FAEE82
Copy CRC 51FAEE82
Cannot be verified as accurate (confidence 2) [C518B9F7], AccurateRip returned [DAAC7317]
Copy OK
Track 6
Filename E:\!Rips\FUNK @ SOUL\The Detroit Emeralds - Do Me Right , You Want It You Got It (CDSEWD 067)\06 – Just Now And Then.wav
Pre-gap length 0:00:02.62
Peak level 89.2 %
Track quality 100.0 %
Test CRC 620CF99B
Copy CRC 620CF99B
Cannot be verified as accurate (confidence 2) [40052392], AccurateRip returned [CF8D7DAA]
Copy OK
Track 7
Filename E:\!Rips\FUNK @ SOUL\The Detroit Emeralds - Do Me Right , You Want It You Got It (CDSEWD 067)\07 – Lee.wav
Pre-gap length 0:00:02.02
Peak level 89.3 %
Track quality 100.0 %
Test CRC 1C0995B5
Copy CRC 1C0995B5
Cannot be verified as accurate (confidence 2) [430722AF], AccurateRip returned [90820637]
Copy OK
Track 8
Filename E:\!Rips\FUNK @ SOUL\The Detroit Emeralds - Do Me Right , You Want It You Got It (CDSEWD 067)\08 – If I Lose Your Love.wav
Pre-gap length 0:00:01.93
Peak level 91.7 %
Track quality 100.0 %
Test CRC E9A68AEC
Copy CRC E9A68AEC
Cannot be verified as accurate (confidence 2) [05345423], AccurateRip returned [17EA1863]
Copy OK
Track 9
Filename E:\!Rips\FUNK @ SOUL\The Detroit Emeralds - Do Me Right , You Want It You Got It (CDSEWD 067)\09 – And I Love Her.wav
Pre-gap length 0:00:02.09
Peak level 82.6 %
Track quality 100.0 %
Test CRC 10E9A21F
Copy CRC 10E9A21F
Cannot be verified as accurate (confidence 2) [3C4BA228], AccurateRip returned [83802128]
Copy OK
Track 10
Filename E:\!Rips\FUNK @ SOUL\The Detroit Emeralds - Do Me Right , You Want It You Got It (CDSEWD 067)\10 – I Can't See Myself(Doing Without You).wav
Pre-gap length 0:00:02.17
Peak level 85.8 %
Track quality 100.0 %
Test CRC 65DF5155
Copy CRC 65DF5155
Cannot be verified as accurate (confidence 2) [B28D191E], AccurateRip returned [B59B519E]
Copy OK
Track 11
Filename E:\!Rips\FUNK @ SOUL\The Detroit Emeralds - Do Me Right , You Want It You Got It (CDSEWD 067)\11 – Holding On.wav
Pre-gap length 0:00:02.10
Peak level 91.9 %
Track quality 100.0 %
Test CRC 08249D4B
Copy CRC 08249D4B
Cannot be verified as accurate (confidence 2) [32CDB427], AccurateRip returned [2891DF5F]
Copy OK
Track 12
Filename E:\!Rips\FUNK @ SOUL\The Detroit Emeralds - Do Me Right , You Want It You Got It (CDSEWD 067)\12 – Admit Your Love Is Gone.wav
Pre-gap length 0:00:02.33
Peak level 87.8 %
Track quality 99.9 %
Test CRC 3960AF23
Copy CRC 3960AF23
Cannot be verified as accurate (confidence 2) [75827EFC], AccurateRip returned [AD43E39C]
Copy OK
Track 13
Filename E:\!Rips\FUNK @ SOUL\The Detroit Emeralds - Do Me Right , You Want It You Got It (CDSEWD 067)\13 – You Want It You Got It.wav
Pre-gap length 0:00:02.80
Peak level 94.9 %
Track quality 100.0 %
Test CRC 98C1E583
Copy CRC 98C1E583
Cannot be verified as accurate (confidence 2) [C3C9FE74], AccurateRip returned [73ECB904]
Copy OK
Track 14
Filename E:\!Rips\FUNK @ SOUL\The Detroit Emeralds - Do Me Right , You Want It You Got It (CDSEWD 067)\14 – There's Love For Me Somewhere.wav
Pre-gap length 0:00:00.90
Peak level 90.4 %
Track quality 100.0 %
Test CRC C82EAB66
Copy CRC C82EAB66
Cannot be verified as accurate (confidence 2) [CBFB14CF], AccurateRip returned [DF7A24CF]
Copy OK
Track 15
Filename E:\!Rips\FUNK @ SOUL\The Detroit Emeralds - Do Me Right , You Want It You Got It (CDSEWD 067)\15 – I'll Never Sail The Seas Again.wav
Pre-gap length 0:00:00.57
Peak level 89.4 %
Track quality 99.7 %
Test CRC D450160E
Copy CRC D450160E
Cannot be verified as accurate (confidence 2) [C1ADBE95], AccurateRip returned [8C3678F5]
Copy OK
Track 16
Filename E:\!Rips\FUNK @ SOUL\The Detroit Emeralds - Do Me Right , You Want It You Got It (CDSEWD 067)\16 – Take My Love.wav
Pre-gap length 0:00:00.84
Peak level 94.1 %
Track quality 99.9 %
Test CRC 7B00297B
Copy CRC 7B00297B
Cannot be verified as accurate (confidence 2) [0A08C4C7], AccurateRip returned [051C56FF]
Copy OK
Track 17
Filename E:\!Rips\FUNK @ SOUL\The Detroit Emeralds - Do Me Right , You Want It You Got It (CDSEWD 067)\17 – Feel The Need In Me.wav
Pre-gap length 0:00:00.44
Peak level 91.2 %
Track quality 100.0 %
Test CRC 4DD8AFD0
Copy CRC 4DD8AFD0
Cannot be verified as accurate (confidence 2) [00C8A4AB], AccurateRip returned [382571C3]
Copy OK
Track 18
Filename E:\!Rips\FUNK @ SOUL\The Detroit Emeralds - Do Me Right , You Want It You Got It (CDSEWD 067)\18 – I've Got To Move On.wav
Pre-gap length 0:00:01.24
Peak level 86.4 %
Track quality 100.0 %
Test CRC 5A8B4484
Copy CRC 5A8B4484
Cannot be verified as accurate (confidence 2) [7F61EE25], AccurateRip returned [32811955]
Copy OK
Track 19
Filename E:\!Rips\FUNK @ SOUL\The Detroit Emeralds - Do Me Right , You Want It You Got It (CDSEWD 067)\19 – Baby Let Me Take You In My Arms.wav
Pre-gap length 0:00:01.33
Peak level 93.6 %
Track quality 100.0 %
Test CRC D84C6469
Copy CRC D84C6469
Cannot be verified as accurate (confidence 2) [E1DE8935], AccurateRip returned [1C76E63D]
Copy OK
Track 20
Filename E:\!Rips\FUNK @ SOUL\The Detroit Emeralds - Do Me Right , You Want It You Got It (CDSEWD 067)\20 – I Bet You Get The One You Love.wav
Pre-gap length 0:00:01.36
Peak level 93.3 %
Track quality 100.0 %
Test CRC CB993382
Copy CRC CB993382
Cannot be verified as accurate (confidence 2) [DB60F80D], AccurateRip returned [5A11F90D]
Copy OK
Track 21
Filename E:\!Rips\FUNK @ SOUL\The Detroit Emeralds - Do Me Right , You Want It You Got It (CDSEWD 067)\21 – Till You Decide To Come Home.wav
Pre-gap length 0:00:01.13
Peak level 85.8 %
Track quality 100.0 %
Test CRC 3E61A821
Copy CRC 3E61A821
Cannot be verified as accurate (confidence 2) [2F280FA3], AccurateRip returned [340AA3D3]
Copy OK
Track 22
Filename E:\!Rips\FUNK @ SOUL\The Detroit Emeralds - Do Me Right , You Want It You Got It (CDSEWD 067)\22 – Radio Promo.wav
Pre-gap length 0:00:03.93
Peak level 83.9 %
Track quality 100.0 %
Test CRC DE2E58FB
Copy CRC DE2E58FB
Cannot be verified as accurate (confidence 2) [0D96C7BF], AccurateRip returned [8E99FFF7]
Copy OK
No tracks could be verified as accurate
You may have a different pressing from the one(s) in the database
No errors occurred
End of status report
 
CUE
REM DISCID 4D0FFE16
REM COMMENT "ExactAudioCopy v0.99pb5"
PERFORMER "The Detroit Emeralds"
TITLE "Do Me Right/You Want It You Got It"
FILE "01 – Do Me Right.wav" WAVE
TRACK 01 AUDIO
TITLE "Do Me Right"
PERFORMER "The Detroit Emeralds"
PREGAP 00:00:33
INDEX 01 00:00:00
TRACK 02 AUDIO
TITLE "Wear This Ring (With Love)"
PERFORMER "The Detroit Emeralds"
INDEX 00 02:48:25
FILE "02 – Wear This Ring (With Love).wav" WAVE
INDEX 01 00:00:00
TRACK 03 AUDIO
TITLE "Long Live The King"
PERFORMER "The Detroit Emeralds"
INDEX 00 03:11:35
FILE "03 – Long Live The King.wav" WAVE
INDEX 01 00:00:00
TRACK 04 AUDIO
TITLE "What You Gonna Do About Me"
PERFORMER "The Detroit Emeralds"
INDEX 00 03:28:08
FILE "04 – What You Gonna Do About Me.wav" WAVE
INDEX 01 00:00:00
TRACK 05 AUDIO
TITLE "You Can't Take This Love For You"
PERFORMER "The Detroit Emeralds"
INDEX 00 03:16:30
FILE "05 – You Can't Take This Love For You.wav" WAVE
INDEX 01 00:00:00
TRACK 06 AUDIO
TITLE "Just Now And Then"
PERFORMER "The Detroit Emeralds"
INDEX 00 03:11:73
FILE "06 – Just Now And Then.wav" WAVE
INDEX 01 00:00:00
TRACK 07 AUDIO
TITLE "Lee"
PERFORMER "The Detroit Emeralds"
INDEX 00 03:19:68
FILE "07 – Lee.wav" WAVE
INDEX 01 00:00:00
TRACK 08 AUDIO
TITLE "If I Lose Your Love"
PERFORMER "The Detroit Emeralds"
INDEX 00 02:46:25
FILE "08 – If I Lose Your Love.wav" WAVE
INDEX 01 00:00:00
TRACK 09 AUDIO
TITLE "And I Love Her"
PERFORMER "The Detroit Emeralds"
INDEX 00 03:12:03
FILE "09 – And I Love Her.wav" WAVE
INDEX 01 00:00:00
TRACK 10 AUDIO
TITLE "I Can't See Myself(Doing Without You)"
PERFORMER "The Detroit Emeralds"
INDEX 00 03:12:20
FILE "10 – I Can't See Myself(Doing Without You).wav" WAVE
INDEX 01 00:00:00
TRACK 11 AUDIO
TITLE "Holding On"
PERFORMER "The Detroit Emeralds"
INDEX 00 03:18:22
FILE "11 – Holding On.wav" WAVE
INDEX 01 00:00:00
TRACK 12 AUDIO
TITLE "Admit Your Love Is Gone"
PERFORMER "The Detroit Emeralds"
INDEX 00 02:36:32
FILE "12 – Admit Your Love Is Gone.wav" WAVE
INDEX 01 00:00:00
TRACK 13 AUDIO
TITLE "You Want It You Got It"
PERFORMER "The Detroit Emeralds"
INDEX 00 03:11:45
FILE "13 – You Want It You Got It.wav" WAVE
INDEX 01 00:00:00
TRACK 14 AUDIO
TITLE "There's Love For Me Somewhere"
PERFORMER "The Detroit Emeralds"
INDEX 00 03:00:60
FILE "14 – There's Love For Me Somewhere.wav" WAVE
INDEX 01 00:00:00
TRACK 15 AUDIO
TITLE "I'll Never Sail The Seas Again"
PERFORMER "The Detroit Emeralds"
INDEX 00 02:24:47
FILE "15 – I'll Never Sail The Seas Again.wav" WAVE
INDEX 01 00:00:00
TRACK 16 AUDIO
TITLE "Take My Love"
PERFORMER "The Detroit Emeralds"
INDEX 00 03:51:22
FILE "16 – Take My Love.wav" WAVE
INDEX 01 00:00:00
TRACK 17 AUDIO
TITLE "Feel The Need In Me"
PERFORMER "The Detroit Emeralds"
INDEX 00 04:00:57
FILE "17 – Feel The Need In Me.wav" WAVE
INDEX 01 00:00:00
TRACK 18 AUDIO
TITLE "I've Got To Move On"
PERFORMER "The Detroit Emeralds"
INDEX 00 03:40:52
FILE "18 – I've Got To Move On.wav" WAVE
INDEX 01 00:00:00
TRACK 19 AUDIO
TITLE "Baby Let Me Take You In My Arms"
PERFORMER "The Detroit Emeralds"
INDEX 00 03:07:60
FILE "19 – Baby Let Me Take You In My Arms.wav" WAVE
INDEX 01 00:00:00
TRACK 20 AUDIO
TITLE "I Bet You Get The One You Love"
PERFORMER "The Detroit Emeralds"
INDEX 00 03:49:00
FILE "20 – I Bet You Get The One You Love.wav" WAVE
INDEX 01 00:00:00
TRACK 21 AUDIO
TITLE "Till You Decide To Come Home"
PERFORMER "The Detroit Emeralds"
INDEX 00 02:12:10
FILE "21 – Till You Decide To Come Home.wav" WAVE
INDEX 01 00:00:00
TRACK 22 AUDIO
TITLE "Radio Promo"
PERFORMER "The Detroit Emeralds"
INDEX 00 02:48:35
FILE "22 – Radio Promo.wav" WAVE
INDEX 01 00:00:00
Приватный:
Нет (DHT включён)
Размер:
423.85 Мб (444,438,022 байт) » файлов: 30
Участники:
0 раздают, 0 качают (0 участников всего)
Внешние участники:
1 раздают, 0 качают (1 участников всего) [ Обновить ]
Никого нет на раздаче - пишите личное сообщение M0p94ok
No seeders - write personal message to M0p94ok
03:28
11
Нет комментариев. Ваш будет первым!