Поиск

(Funk, Soul) The Kay Gee's - Keep On Bumpin' & Masterplan (SPLK-7100) (1994 remaster) - 1974, FLAC (tracks+.cue), lossless

(Funk, Soul) The Kay Gee's - Keep On Bumpin' & Masterplan (SPLK-7100) (1994 remaster) - 1974, FLAC (tracks+.cue), lossless
Треклист:
The Kay Gee's - Keep On Bumpin' & Masterplan
Жанр: Funk, Soul
Год выпуска диска: 1974 (1994 remaster)
Производитель диска: Canada
Аудио кодек: FLAC
Тип рипа: tracks+.cue
Битрейт аудио: lossless
Продолжительность: 00:55:10
1. 'Get Down' (4:30)
2. 'Let's Boogie' (5:10)
3. 'My Favorite Song' (2:36)
4. 'You've Got To Keep On Bumpin' ' (8:11)
5. 'Hustle Wit Every Muscle' (Theme from 'PARTY' T.V.Show) (3:11)
6. 'Master Plan (2:49)
7. 'Who's The Man? ' (With The Master Plan) (1:52)
8. 'Ain't No Time' (Part 1) (1:46)
9. 'Wondering' (4:18)
10. 'Ain't No Time' (Part 2) (4:55)
11. 'Anthology' (2:28)
12. 'My Favorite Song' (Disco Version) (5:12)
13. 'Hustle Wit Every Muscle' (Long Version) (4:12)
14. 'Let's Boogie' (Instrumental) (4:00)

Собственноручный рип с оригинального диска от funky_cat!
 
Log EAC
Exact Audio Copy V0.99 prebeta 5 from 4. May 2009
EAC extraction logfile from 8. March 2010, 20:14
THE KAYGEE'S / Keep On Bumpin' & Masterplan
Used drive : ASUS CB-5216A Adapter: 0 ID: 1
Read mode : Secure
Utilize accurate stream : Yes
Defeat audio cache : Yes
Make use of C2 pointers : No
Read offset correction : 6
Overread into Lead-In and Lead-Out : No
Fill up missing offset samples with silence : Yes
Delete leading and trailing silent blocks : No
Null samples used in CRC calculations : Yes
Used interface : Native Win32 interface for Win NT & 2000
Gap handling : Appended to previous track
Used output format : User Defined Encoder
Selected bitrate : 320 kBit/s
Quality : High
Add ID3 tag : No
Command line compressor : C:\Program Files\FLAC\flac.exe
Additional command line options : -5 -V -T "ARTIST=%a" -T "TITLE=%t" -T "ALBUM=%g" -T "DATE=%y" -T "TRACKNUMBER=%n" -T "GENRE=%m" -T "COMMENT=Ripped By andygrakoff aka yetiisyou" %s
TOC of the extracted CD
Track | Start | Length | Start sector | End sector
---------------------------------------------------------
1 | 0:00.00 | 4:30.30 | 0 | 20279
2 | 4:30.30 | 5:10.55 | 20280 | 43584
3 | 9:41.10 | 2:36.26 | 43585 | 55310
4 | 12:17.36 | 8:11.30 | 55311 | 92165
5 | 20:28.66 | 3:11.47 | 92166 | 106537
6 | 23:40.38 | 2:49.26 | 106538 | 119238
7 | 26:29.64 | 1:52.02 | 119239 | 127640
8 | 28:21.66 | 1:46.68 | 127641 | 135658
9 | 30:08.59 | 4:18.65 | 135659 | 155073
10 | 34:27.49 | 4:55.45 | 155074 | 177243
11 | 39:23.19 | 2:28.73 | 177244 | 188416
12 | 41:52.17 | 5:12.24 | 188417 | 211840
13 | 47:04.41 | 4:12.52 | 211841 | 230792
14 | 51:17.18 | 4:00.47 | 230793 | 248839
Track 1
Filename E:\!Rips\FUNK @ SOUL\The Kay Gee's - Keep On Bumpin' & Masterplan (SPLK-7100)\01 – 'Get Down'.wav
Pre-gap length 0:00:02.00
Peak level 98.3 %
Track quality 100.0 %
Test CRC 09FCFFC9
Copy CRC 09FCFFC9
Track not present in AccurateRip database
Copy OK
Track 2
Filename E:\!Rips\FUNK @ SOUL\The Kay Gee's - Keep On Bumpin' & Masterplan (SPLK-7100)\02 – 'Let's Boogie'.wav
Peak level 98.4 %
Track quality 100.0 %
Test CRC 2FE2BC2B
Copy CRC 2FE2BC2B
Track not present in AccurateRip database
Copy OK
Track 3
Filename E:\!Rips\FUNK @ SOUL\The Kay Gee's - Keep On Bumpin' & Masterplan (SPLK-7100)\03 – 'My Favorite Song'.wav
Pre-gap length 0:00:02.00
Peak level 96.4 %
Track quality 100.0 %
Test CRC 0B1C09DA
Copy CRC 0B1C09DA
Track not present in AccurateRip database
Copy OK
Track 4
Filename E:\!Rips\FUNK @ SOUL\The Kay Gee's - Keep On Bumpin' & Masterplan (SPLK-7100)\04 – 'You've Got To Keep On Bumpin' '.wav
Peak level 99.6 %
Track quality 100.0 %
Test CRC E413CFD7
Copy CRC E413CFD7
Track not present in AccurateRip database
Copy OK
Track 5
Filename E:\!Rips\FUNK @ SOUL\The Kay Gee's - Keep On Bumpin' & Masterplan (SPLK-7100)\05 – 'Hustle Wit Every Muscle' (Theme from 'PARTY' T.V.Show).wav
Pre-gap length 0:00:02.00
Peak level 96.7 %
Track quality 100.0 %
Test CRC 540EC14D
Copy CRC 540EC14D
Track not present in AccurateRip database
Copy OK
Track 6
Filename E:\!Rips\FUNK @ SOUL\The Kay Gee's - Keep On Bumpin' & Masterplan (SPLK-7100)\06 – 'Master Plan.wav
Pre-gap length 0:00:02.00
Peak level 97.7 %
Track quality 99.9 %
Test CRC A1E3F231
Copy CRC A1E3F231
Track not present in AccurateRip database
Copy OK
Track 7
Filename E:\!Rips\FUNK @ SOUL\The Kay Gee's - Keep On Bumpin' & Masterplan (SPLK-7100)\07 – 'Who's The Man ' (With The Master Plan).wav
Peak level 96.3 %
Track quality 100.0 %
Test CRC 1FD2B532
Copy CRC 1FD2B532
Track not present in AccurateRip database
Copy OK
Track 8
Filename E:\!Rips\FUNK @ SOUL\The Kay Gee's - Keep On Bumpin' & Masterplan (SPLK-7100)\08 – 'Ain't No Time' (Part 1).wav
Peak level 96.0 %
Track quality 99.9 %
Test CRC 26022F5B
Copy CRC 26022F5B
Track not present in AccurateRip database
Copy OK
Track 9
Filename E:\!Rips\FUNK @ SOUL\The Kay Gee's - Keep On Bumpin' & Masterplan (SPLK-7100)\09 – 'Wondering'.wav
Peak level 96.9 %
Track quality 100.0 %
Test CRC 6241FE1D
Copy CRC 6241FE1D
Track not present in AccurateRip database
Copy OK
Track 10
Filename E:\!Rips\FUNK @ SOUL\The Kay Gee's - Keep On Bumpin' & Masterplan (SPLK-7100)\10 – 'Ain't No Time' (Part 2).wav
Pre-gap length 0:00:02.00
Peak level 96.7 %
Track quality 100.0 %
Test CRC C3A00BF7
Copy CRC C3A00BF7
Track not present in AccurateRip database
Copy OK
Track 11
Filename E:\!Rips\FUNK @ SOUL\The Kay Gee's - Keep On Bumpin' & Masterplan (SPLK-7100)\11 – 'Anthology'.wav
Peak level 96.3 %
Track quality 100.0 %
Test CRC 50908599
Copy CRC 50908599
Track not present in AccurateRip database
Copy OK
Track 12
Filename E:\!Rips\FUNK @ SOUL\The Kay Gee's - Keep On Bumpin' & Masterplan (SPLK-7100)\12 – 'My Favorite Song' (Disco Version).wav
Peak level 96.1 %
Track quality 100.0 %
Test CRC FEDA530E
Copy CRC FEDA530E
Track not present in AccurateRip database
Copy OK
Track 13
Filename E:\!Rips\FUNK @ SOUL\The Kay Gee's - Keep On Bumpin' & Masterplan (SPLK-7100)\13 – 'Hustle Wit Every Muscle' (Long Version).wav
Peak level 97.2 %
Track quality 99.9 %
Test CRC C44FC6E2
Copy CRC C44FC6E2
Track not present in AccurateRip database
Copy OK
Track 14
Filename E:\!Rips\FUNK @ SOUL\The Kay Gee's - Keep On Bumpin' & Masterplan (SPLK-7100)\14 – 'Let's Boogie' (Instrumental).wav
Pre-gap length 0:00:02.00
Peak level 96.4 %
Track quality 100.0 %
Test CRC 528EF917
Copy CRC 528EF917
Track not present in AccurateRip database
Copy OK
None of the tracks are present in the AccurateRip database
No errors occurred
End of status report
 
CUE
REM DATE 1974
REM DISCID B60CF50E
REM COMMENT "ExactAudioCopy v0.99pb5"
PERFORMER "THE KAYGEE'S"
TITLE "Keep On Bumpin' & Masterplan"
FILE "01 – 'Get Down'.wav" WAVE
TRACK 01 AUDIO
TITLE "'Get Down'"
PERFORMER "THE KAYGEE'S"
INDEX 01 00:00:00
FILE "02 – 'Let's Boogie'.wav" WAVE
TRACK 02 AUDIO
TITLE "'Let's Boogie'"
PERFORMER "THE KAYGEE'S"
INDEX 01 00:00:00
TRACK 03 AUDIO
TITLE "'My Favorite Song'"
PERFORMER "THE KAYGEE'S"
INDEX 00 05:08:55
FILE "03 – 'My Favorite Song'.wav" WAVE
INDEX 01 00:00:00
FILE "04 – 'You've Got To Keep On Bumpin' '.wav" WAVE
TRACK 04 AUDIO
TITLE "'You've Got To Keep On Bumpin' '"
PERFORMER "THE KAYGEE'S"
INDEX 01 00:00:00
TRACK 05 AUDIO
TITLE "'Hustle Wit Every Muscle' (Theme from 'PARTY' T.V.Show)"
PERFORMER "THE KAYGEE'S"
INDEX 00 08:09:30
FILE "05 – 'Hustle Wit Every Muscle' (Theme from 'PARTY' T.V.Show).wav" WAVE
INDEX 01 00:00:00
TRACK 06 AUDIO
TITLE "'Master Plan"
PERFORMER "THE KAYGEE'S"
INDEX 00 03:09:47
FILE "06 – 'Master Plan.wav" WAVE
INDEX 01 00:00:00
FILE "07 – 'Who's The Man ' (With The Master Plan).wav" WAVE
TRACK 07 AUDIO
TITLE "'Who's The Man? ' (With The Master Plan)"
PERFORMER "THE KAYGEE'S"
INDEX 01 00:00:00
FILE "08 – 'Ain't No Time' (Part 1).wav" WAVE
TRACK 08 AUDIO
TITLE "'Ain't No Time' (Part 1)"
PERFORMER "THE KAYGEE'S"
INDEX 01 00:00:00
FILE "09 – 'Wondering'.wav" WAVE
TRACK 09 AUDIO
TITLE "'Wondering'"
PERFORMER "THE KAYGEE'S"
INDEX 01 00:00:00
TRACK 10 AUDIO
TITLE "'Ain't No Time' (Part 2)"
PERFORMER "THE KAYGEE'S"
INDEX 00 04:16:65
FILE "10 – 'Ain't No Time' (Part 2).wav" WAVE
INDEX 01 00:00:00
FILE "11 – 'Anthology'.wav" WAVE
TRACK 11 AUDIO
TITLE "'Anthology'"
PERFORMER "THE KAYGEE'S"
INDEX 01 00:00:00
FILE "12 – 'My Favorite Song' (Disco Version).wav" WAVE
TRACK 12 AUDIO
TITLE "'My Favorite Song' (Disco Version)"
PERFORMER "THE KAYGEE'S"
INDEX 01 00:00:00
FILE "13 – 'Hustle Wit Every Muscle' (Long Version).wav" WAVE
TRACK 13 AUDIO
TITLE "'Hustle Wit Every Muscle' (Long Version)"
PERFORMER "THE KAYGEE'S"
INDEX 01 00:00:00
TRACK 14 AUDIO
TITLE "'Let's Boogie' (Instrumental)"
PERFORMER "THE KAYGEE'S"
INDEX 00 04:10:52
FILE "14 – 'Let's Boogie' (Instrumental).wav" WAVE
INDEX 01 00:00:00
Приватный:
Нет (DHT включён)
Размер:
413.71 Мб (433,803,502 байт) » файлов: 27
Участники:
0 раздают, 0 качают (0 участников всего)
Внешние участники:
5 раздают, 1 качают (6 участников всего) [ Обновить ]
Нет сидеров - пишите личное сообщение M0p94ok. Не нравятся торренты? Участники группы Pro-jazz Club могут заказать прямую ссылку на скачивание из облака.
No seeders - write a personal message to M0p94ok. Don't like torrents? Members of Pro-jazz Club group can order a direct download link from the cloud.
03:29
13
Нет комментариев. Ваш будет первым!