Поиск

(Funk, Soul, Jazz) The Mar-Keys - Last Night Do The Pop Eye (SCD-88041-2) (remaster 2002) - 1961, FLAC (tracks+.cue), lossless

(Funk, Soul, Jazz) The Mar-Keys - Last Night Do The Pop Eye (SCD-88041-2) (remaster 2002) - 1961, FLAC (tracks+.cue), lossless
Треклист:
The Mar-Keys - Last Night Do The Pop Eye
Жанр: Funk, Soul, Jazz
Год выпуска диска: 1961 (remaster 2002)
Производитель диска: Stax
Аудио кодек: FLAC
Тип рипа: tracks+.cue
Битрейт аудио: lossless
Продолжительность: 00:58:29
1. Morning After (2:14)
2. Diana (1:58)
3. Alright, Okay, You Win (2:27)
4. Sticks And Stones (2:00)
5. Misty (2:34)
6. Night Before (2:13)
7. About Noon (2:33)
8. One Degree North (2:15)
9. Sack O' Woe (2:31)
10. Hold It ! (2:08)
11. Ebb Tide (3:43)
12. Last Night (2:39)
13. Pop-Eye Stroll (2:46)
14. Wimp-Burger (2:35)
15. Straight From The Can (2:05)
16. 'Cause I Love You (2:40)
17. Squint-Eye (2:04)
18. Pop-Eye Rider (2:27)
19. It's Gonna Work Out Fine (2:37)
20. Sit Still (2:12)
21. Too Pooped To Pop-Eye (2:35)
22. Sweet-P Crawl (2:07)
23. Muscles A-Comin' Home (2:24)
24. Sailor Man Waltz (2:42)
Собственноручный рип с оригинального диска от funky_cat!
 
Log EAC
Exact Audio Copy V0.99 prebeta 5 from 4. May 2009
EAC extraction logfile from 8. March 2010, 0:33
Mar-Keys / Last Night ! & Do The Pop-Eye
Used drive : ASUS DRW-1608P2 Adapter: 0 ID: 0
Read mode : Secure
Utilize accurate stream : Yes
Defeat audio cache : Yes
Make use of C2 pointers : No
Read offset correction : 48
Overread into Lead-In and Lead-Out : No
Fill up missing offset samples with silence : Yes
Delete leading and trailing silent blocks : No
Null samples used in CRC calculations : Yes
Used interface : Native Win32 interface for Win NT & 2000
Gap handling : Appended to previous track
Used output format : User Defined Encoder
Selected bitrate : 320 kBit/s
Quality : High
Add ID3 tag : No
Command line compressor : C:\Program Files\FLAC\flac.exe
Additional command line options : -5 -V -T "ARTIST=%a" -T "TITLE=%t" -T "ALBUM=%g" -T "DATE=%y" -T "TRACKNUMBER=%n" -T "GENRE=%m" -T "COMMENT=Ripped By andygrakoff aka yetiisyou" %s
TOC of the extracted CD
Track | Start | Length | Start sector | End sector
---------------------------------------------------------
1 | 0:00.00 | 2:14.17 | 0 | 10066
2 | 2:14.17 | 1:58.45 | 10067 | 18961
3 | 4:12.62 | 2:27.08 | 18962 | 29994
4 | 6:39.70 | 2:00.02 | 29995 | 38996
5 | 8:39.72 | 2:34.00 | 38997 | 50546
6 | 11:13.72 | 2:13.53 | 50547 | 60574
7 | 13:27.50 | 2:33.12 | 60575 | 72061
8 | 16:00.62 | 2:15.60 | 72062 | 82246
9 | 18:16.47 | 2:31.68 | 82247 | 93639
10 | 20:48.40 | 2:08.05 | 93640 | 103244
11 | 22:56.45 | 3:43.02 | 103245 | 119971
12 | 26:39.47 | 2:39.13 | 119972 | 131909
13 | 29:18.60 | 2:46.17 | 131910 | 144376
14 | 32:05.02 | 2:35.38 | 144377 | 156039
15 | 34:40.40 | 2:05.72 | 156040 | 165486
16 | 36:46.37 | 2:40.63 | 165487 | 177549
17 | 39:27.25 | 2:04.22 | 177550 | 186871
18 | 41:31.47 | 2:27.65 | 186872 | 197961
19 | 43:59.37 | 2:37.43 | 197962 | 209779
20 | 46:37.05 | 2:12.45 | 209780 | 219724
21 | 48:49.50 | 2:35.22 | 219725 | 231371
22 | 51:24.72 | 2:07.33 | 231372 | 240929
23 | 53:32.30 | 2:24.07 | 240930 | 251736
24 | 55:56.37 | 2:42.65 | 251737 | 263951
Track 1
Filename E:\!Rips\FUNK @ SOUL\The Mar-Keys - Last Night Do The Pop Eye (SCD-88041-2)\01 – Morning After.wav
Pre-gap length 0:00:02.00
Peak level 96.7 %
Track quality 100.0 %
Test CRC 53864542
Copy CRC 53864542
Track not present in AccurateRip database
Copy OK
Track 2
Filename E:\!Rips\FUNK @ SOUL\The Mar-Keys - Last Night Do The Pop Eye (SCD-88041-2)\02 – Diana.wav
Peak level 93.7 %
Track quality 100.0 %
Test CRC 54D93C4C
Copy CRC 54D93C4C
Track not present in AccurateRip database
Copy OK
Track 3
Filename E:\!Rips\FUNK @ SOUL\The Mar-Keys - Last Night Do The Pop Eye (SCD-88041-2)\03 – Alright, Okay, You Win.wav
Peak level 94.9 %
Track quality 99.9 %
Test CRC 91BBFFF3
Copy CRC 91BBFFF3
Track not present in AccurateRip database
Copy OK
Track 4
Filename E:\!Rips\FUNK @ SOUL\The Mar-Keys - Last Night Do The Pop Eye (SCD-88041-2)\04 – Sticks And Stones.wav
Peak level 95.5 %
Track quality 100.0 %
Test CRC 80D0AF2E
Copy CRC 80D0AF2E
Track not present in AccurateRip database
Copy OK
Track 5
Filename E:\!Rips\FUNK @ SOUL\The Mar-Keys - Last Night Do The Pop Eye (SCD-88041-2)\05 – Misty.wav
Peak level 97.0 %
Track quality 100.0 %
Test CRC 5F525B46
Copy CRC 5F525B46
Track not present in AccurateRip database
Copy OK
Track 6
Filename E:\!Rips\FUNK @ SOUL\The Mar-Keys - Last Night Do The Pop Eye (SCD-88041-2)\06 – Night Before.wav
Peak level 95.4 %
Track quality 100.0 %
Test CRC E38D83EE
Copy CRC E38D83EE
Track not present in AccurateRip database
Copy OK
Track 7
Filename E:\!Rips\FUNK @ SOUL\The Mar-Keys - Last Night Do The Pop Eye (SCD-88041-2)\07 – About Noon.wav
Peak level 95.1 %
Track quality 100.0 %
Test CRC D3D69665
Copy CRC D3D69665
Track not present in AccurateRip database
Copy OK
Track 8
Filename E:\!Rips\FUNK @ SOUL\The Mar-Keys - Last Night Do The Pop Eye (SCD-88041-2)\08 – One Degree North.wav
Peak level 97.2 %
Track quality 99.9 %
Test CRC 566FACBE
Copy CRC 566FACBE
Track not present in AccurateRip database
Copy OK
Track 9
Filename E:\!Rips\FUNK @ SOUL\The Mar-Keys - Last Night Do The Pop Eye (SCD-88041-2)\09 – Sack O' Woe.wav
Peak level 94.2 %
Track quality 100.0 %
Test CRC 2DFAD04F
Copy CRC 2DFAD04F
Track not present in AccurateRip database
Copy OK
Track 10
Filename E:\!Rips\FUNK @ SOUL\The Mar-Keys - Last Night Do The Pop Eye (SCD-88041-2)\10 – Hold It !.wav
Peak level 96.1 %
Track quality 100.0 %
Test CRC D89831A9
Copy CRC D89831A9
Track not present in AccurateRip database
Copy OK
Track 11
Filename E:\!Rips\FUNK @ SOUL\The Mar-Keys - Last Night Do The Pop Eye (SCD-88041-2)\11 – Ebb Tide.wav
Pre-gap length 0:00:00.01
Peak level 93.3 %
Track quality 100.0 %
Test CRC 42222D0A
Copy CRC 42222D0A
Track not present in AccurateRip database
Copy OK
Track 12
Filename E:\!Rips\FUNK @ SOUL\The Mar-Keys - Last Night Do The Pop Eye (SCD-88041-2)\12 – Last Night.wav
Peak level 96.2 %
Track quality 100.0 %
Test CRC B1FAFEF8
Copy CRC B1FAFEF8
Track not present in AccurateRip database
Copy OK
Track 13
Filename E:\!Rips\FUNK @ SOUL\The Mar-Keys - Last Night Do The Pop Eye (SCD-88041-2)\13 – Pop-Eye Stroll.wav
Peak level 93.6 %
Track quality 100.0 %
Test CRC 24467B66
Copy CRC 24467B66
Track not present in AccurateRip database
Copy OK
Track 14
Filename E:\!Rips\FUNK @ SOUL\The Mar-Keys - Last Night Do The Pop Eye (SCD-88041-2)\14 – Wimp-Burger.wav
Peak level 94.0 %
Track quality 100.0 %
Test CRC 8376D50C
Copy CRC 8376D50C
Track not present in AccurateRip database
Copy OK
Track 15
Filename E:\!Rips\FUNK @ SOUL\The Mar-Keys - Last Night Do The Pop Eye (SCD-88041-2)\15 – Straight From The Can.wav
Peak level 94.3 %
Track quality 100.0 %
Test CRC 4E9FEF32
Copy CRC 4E9FEF32
Track not present in AccurateRip database
Copy OK
Track 16
Filename E:\!Rips\FUNK @ SOUL\The Mar-Keys - Last Night Do The Pop Eye (SCD-88041-2)\16 – 'Cause I Love You.wav
Peak level 94.4 %
Track quality 100.0 %
Test CRC DCE977A8
Copy CRC DCE977A8
Track not present in AccurateRip database
Copy OK
Track 17
Filename E:\!Rips\FUNK @ SOUL\The Mar-Keys - Last Night Do The Pop Eye (SCD-88041-2)\17 – Squint-Eye.wav
Peak level 92.4 %
Track quality 100.0 %
Test CRC DB32AE87
Copy CRC DB32AE87
Track not present in AccurateRip database
Copy OK
Track 18
Filename E:\!Rips\FUNK @ SOUL\The Mar-Keys - Last Night Do The Pop Eye (SCD-88041-2)\18 – Pop-Eye Rider.wav
Peak level 94.6 %
Track quality 100.0 %
Test CRC BD543A91
Copy CRC BD543A91
Track not present in AccurateRip database
Copy OK
Track 19
Filename E:\!Rips\FUNK @ SOUL\The Mar-Keys - Last Night Do The Pop Eye (SCD-88041-2)\19 – It's Gonna Work Out Fine.wav
Peak level 94.4 %
Track quality 100.0 %
Test CRC 9A0C0C7A
Copy CRC 9A0C0C7A
Track not present in AccurateRip database
Copy OK
Track 20
Filename E:\!Rips\FUNK @ SOUL\The Mar-Keys - Last Night Do The Pop Eye (SCD-88041-2)\20 – Sit Still.wav
Peak level 95.1 %
Track quality 100.0 %
Test CRC 251A510B
Copy CRC 251A510B
Track not present in AccurateRip database
Copy OK
Track 21
Filename E:\!Rips\FUNK @ SOUL\The Mar-Keys - Last Night Do The Pop Eye (SCD-88041-2)\21 – Too Pooped To Pop-Eye.wav
Peak level 94.2 %
Track quality 100.0 %
Test CRC DACDAA1D
Copy CRC DACDAA1D
Track not present in AccurateRip database
Copy OK
Track 22
Filename E:\!Rips\FUNK @ SOUL\The Mar-Keys - Last Night Do The Pop Eye (SCD-88041-2)\22 – Sweet-P Crawl.wav
Peak level 95.2 %
Track quality 100.0 %
Test CRC 49CDA63B
Copy CRC 49CDA63B
Track not present in AccurateRip database
Copy OK
Track 23
Filename E:\!Rips\FUNK @ SOUL\The Mar-Keys - Last Night Do The Pop Eye (SCD-88041-2)\23 – Muscles A-Comin' Home.wav
Peak level 91.8 %
Track quality 99.9 %
Test CRC DC1A8793
Copy CRC DC1A8793
Track not present in AccurateRip database
Copy OK
Track 24
Filename E:\!Rips\FUNK @ SOUL\The Mar-Keys - Last Night Do The Pop Eye (SCD-88041-2)\24 – Sailor Man Waltz.wav
Peak level 93.8 %
Track quality 100.0 %
Test CRC 1782CAFC
Copy CRC 1782CAFC
Track not present in AccurateRip database
Copy OK
None of the tracks are present in the AccurateRip database
No errors occurred
End of status report
 
CUE
REM GENRE Jazz
REM DATE 1961
REM DISCID 520DBF18
REM COMMENT "ExactAudioCopy v0.99pb5"
PERFORMER "Mar-Keys"
TITLE "Last Night ! & Do The Pop-Eye"
FILE "01 – Morning After.wav" WAVE
TRACK 01 AUDIO
TITLE "Morning After"
PERFORMER "Mar-Keys"
INDEX 01 00:00:00
FILE "02 – Diana.wav" WAVE
TRACK 02 AUDIO
TITLE "Diana"
PERFORMER "Mar-Keys"
INDEX 01 00:00:00
FILE "03 – Alright, Okay, You Win.wav" WAVE
TRACK 03 AUDIO
TITLE "Alright, Okay, You Win"
PERFORMER "Mar-Keys"
INDEX 01 00:00:00
FILE "04 – Sticks And Stones.wav" WAVE
TRACK 04 AUDIO
TITLE "Sticks And Stones"
PERFORMER "Mar-Keys"
INDEX 01 00:00:00
FILE "05 – Misty.wav" WAVE
TRACK 05 AUDIO
TITLE "Misty"
PERFORMER "Mar-Keys"
INDEX 01 00:00:00
FILE "06 – Night Before.wav" WAVE
TRACK 06 AUDIO
TITLE "Night Before"
PERFORMER "Mar-Keys"
INDEX 01 00:00:00
FILE "07 – About Noon.wav" WAVE
TRACK 07 AUDIO
TITLE "About Noon"
PERFORMER "Mar-Keys"
INDEX 01 00:00:00
FILE "08 – One Degree North.wav" WAVE
TRACK 08 AUDIO
TITLE "One Degree North"
PERFORMER "Mar-Keys"
INDEX 01 00:00:00
FILE "09 – Sack O' Woe.wav" WAVE
TRACK 09 AUDIO
TITLE "Sack O' Woe"
PERFORMER "Mar-Keys"
INDEX 01 00:00:00
FILE "10 – Hold It !.wav" WAVE
TRACK 10 AUDIO
TITLE "Hold It !"
PERFORMER "Mar-Keys"
INDEX 01 00:00:00
TRACK 11 AUDIO
TITLE "Ebb Tide"
PERFORMER "Mar-Keys"
INDEX 00 02:08:04
FILE "11 – Ebb Tide.wav" WAVE
INDEX 01 00:00:00
FILE "12 – Last Night.wav" WAVE
TRACK 12 AUDIO
TITLE "Last Night"
PERFORMER "Mar-Keys"
INDEX 01 00:00:00
FILE "13 – Pop-Eye Stroll.wav" WAVE
TRACK 13 AUDIO
TITLE "Pop-Eye Stroll"
PERFORMER "Mar-Keys"
INDEX 01 00:00:00
FILE "14 – Wimp-Burger.wav" WAVE
TRACK 14 AUDIO
TITLE "Wimp-Burger"
PERFORMER "Mar-Keys"
INDEX 01 00:00:00
FILE "15 – Straight From The Can.wav" WAVE
TRACK 15 AUDIO
TITLE "Straight From The Can"
PERFORMER "Mar-Keys"
INDEX 01 00:00:00
FILE "16 – 'Cause I Love You.wav" WAVE
TRACK 16 AUDIO
TITLE "'Cause I Love You"
PERFORMER "Mar-Keys"
INDEX 01 00:00:00
FILE "17 – Squint-Eye.wav" WAVE
TRACK 17 AUDIO
TITLE "Squint-Eye"
PERFORMER "Mar-Keys"
INDEX 01 00:00:00
FILE "18 – Pop-Eye Rider.wav" WAVE
TRACK 18 AUDIO
TITLE "Pop-Eye Rider"
PERFORMER "Mar-Keys"
INDEX 01 00:00:00
FILE "19 – It's Gonna Work Out Fine.wav" WAVE
TRACK 19 AUDIO
TITLE "It's Gonna Work Out Fine"
PERFORMER "Mar-Keys"
INDEX 01 00:00:00
FILE "20 – Sit Still.wav" WAVE
TRACK 20 AUDIO
TITLE "Sit Still"
PERFORMER "Mar-Keys"
INDEX 01 00:00:00
FILE "21 – Too Pooped To Pop-Eye.wav" WAVE
TRACK 21 AUDIO
TITLE "Too Pooped To Pop-Eye"
PERFORMER "Mar-Keys"
INDEX 01 00:00:00
FILE "22 – Sweet-P Crawl.wav" WAVE
TRACK 22 AUDIO
TITLE "Sweet-P Crawl"
PERFORMER "Mar-Keys"
INDEX 01 00:00:00
FILE "23 – Muscles A-Comin' Home.wav" WAVE
TRACK 23 AUDIO
TITLE "Muscles A-Comin' Home"
PERFORMER "Mar-Keys"
INDEX 01 00:00:00
FILE "24 – Sailor Man Waltz.wav" WAVE
TRACK 24 AUDIO
TITLE "Sailor Man Waltz"
PERFORMER "Mar-Keys"
INDEX 01 00:00:00
Приватный:
Нет (DHT включён)
Размер:
377.49 Мб (395,821,748 байт) » файлов: 29
Участники:
0 раздают, 0 качают (0 участников всего)
Внешние участники:
5 раздают, 2 качают (7 участников всего) [ Обновить ]
Никого нет на раздаче - пишите личное сообщение M0p94ok
No seeders - write personal message to M0p94ok
03:29
11
Нет комментариев. Ваш будет первым!