Поиск

(Funk, Soul, World Fusion) [CD] Merl Saunders - Fiesta Amazonica - 1997, FLAC (tracks+.cue), lossless

(Funk, Soul, World Fusion) [CD] Merl Saunders - Fiesta Amazonica - 1997, FLAC (tracks+.cue), lossless
Треклист:
Merl Saunders - Fiesta Amazonica
Жанр: Funk, Soul, World Fusion
Носитель: CD
Страна-производитель диска (релиза): США
Год издания: 1997
Издатель (лейбл): Sumertone
Номер по каталогу: S2CD-2183
Аудиокодек: FLAC (*.flac)
Тип рипа: tracks+.cue
Битрейт аудио: lossless
Продолжительность: 70:36
Источник (релизер): redacted
Наличие сканов в содержимом раздачи: нет
Треклист:
01. Forest Dance (7:43)
02. Fiesta Amazonica (8:36)
03. Nostalgia for Jerome (5:41)
04. Child's Play (7:03)
05. Walk the River (8:16)
06. Dance of the Pink Dolphins (9:58)
07. Eduardo (Can You Hear Me Calling) (8:36)
08. Prayer for the Trees (8:29)
09. Ayahuasca Zone (6:14)
 
Лог создания рипа
Exact Audio Copy V0.99 prebeta 4 from 23. January 2008
EAC extraction logfile from 14. February 2010, 19:24
Merl Saunders / Fiesta Amazonica
Used drive : TSSTcorpDVD+-RW TS-H653F Adapter: 0 ID: 1
Read mode : Secure
Utilize accurate stream : Yes
Defeat audio cache : Yes
Make use of C2 pointers : No
Read offset correction : 6
Overread into Lead-In and Lead-Out : No
Fill up missing offset samples with silence : Yes
Delete leading and trailing silent blocks : No
Null samples used in CRC calculations : Yes
Used interface : Native Win32 interface for Win NT & 2000
Gap handling : Appended to previous track
Used output format : User Defined Encoder
Selected bitrate : 128 kBit/s
Quality : High
Add ID3 tag : No
Command line compressor : C:\Program Files\Exact Audio Copy\Flac\flac.exe
Additional command line options : -V -8 -T "artist=%a" -T "title=%t" -T "album=%g" -T "date=%y" -T "tracknumber=%n" -T "genre=%m" %s
TOC of the extracted CD
Track | Start | Length | Start sector | End sector
---------------------------------------------------------
1 | 0:00.00 | 7:43.35 | 0 | 34759
2 | 7:43.35 | 8:36.22 | 34760 | 73481
3 | 16:19.57 | 5:40.48 | 73482 | 99029
4 | 22:00.30 | 7:03.12 | 99030 | 130766
5 | 29:03.42 | 8:16.33 | 130767 | 167999
6 | 37:20.00 | 9:58.07 | 168000 | 212856
7 | 47:18.07 | 8:36.27 | 212857 | 251583
8 | 55:54.34 | 8:28.43 | 251584 | 289726
9 | 64:23.02 | 6:14.33 | 289727 | 317809
Track 1
Filename K:\EAC rips\Merl Saunders - 1997 - Fiesta Amazonica [FLAC]\01 - Forest Dance.wav
Pre-gap length 0:00:02.00
Peak level 100.0 %
Track quality 100.0 %
Test CRC 6F2B1C5E
Copy CRC 6F2B1C5E
Accurately ripped (confidence 1) [9A618250]
Copy OK
Track 2
Filename K:\EAC rips\Merl Saunders - 1997 - Fiesta Amazonica [FLAC]\02 - Fiesta Amazonica.wav
Pre-gap length 0:00:01.06
Peak level 100.0 %
Track quality 100.0 %
Test CRC 22467679
Copy CRC 22467679
Accurately ripped (confidence 1) [1F3FCBD5]
Copy OK
Track 3
Filename K:\EAC rips\Merl Saunders - 1997 - Fiesta Amazonica [FLAC]\03 - Nostalga For Jerome.wav
Pre-gap length 0:00:02.66
Peak level 100.0 %
Track quality 100.0 %
Test CRC AEA3D595
Copy CRC AEA3D595
Accurately ripped (confidence 1) [9C92F504]
Copy OK
Track 4
Filename K:\EAC rips\Merl Saunders - 1997 - Fiesta Amazonica [FLAC]\04 - Child's Play.wav
Pre-gap length 0:00:03.84
Peak level 100.0 %
Track quality 100.0 %
Test CRC 5B79DB43
Copy CRC 5B79DB43
Accurately ripped (confidence 1) [9E9E1EFE]
Copy OK
Track 5
Filename K:\EAC rips\Merl Saunders - 1997 - Fiesta Amazonica [FLAC]\05 - Walk The River.wav
Pre-gap length 0:00:02.80
Peak level 100.0 %
Track quality 99.9 %
Test CRC B5C320EA
Copy CRC B5C320EA
Accurately ripped (confidence 1) [A6D3DEF1]
Copy OK
Track 6
Filename K:\EAC rips\Merl Saunders - 1997 - Fiesta Amazonica [FLAC]\06 - Dance Of The Pink Dolphins.wav
Peak level 100.0 %
Track quality 100.0 %
Test CRC 78269019
Copy CRC 78269019
Accurately ripped (confidence 1) [ECEFE5C8]
Copy OK
Track 7
Filename K:\EAC rips\Merl Saunders - 1997 - Fiesta Amazonica [FLAC]\07 - Eduardo (Can You Hear Me Calling ).wav
Pre-gap length 0:00:03.06
Peak level 100.0 %
Track quality 99.9 %
Test CRC 7B80ED76
Copy CRC 7B80ED76
Accurately ripped (confidence 1) [13B2DC72]
Copy OK
Track 8
Filename K:\EAC rips\Merl Saunders - 1997 - Fiesta Amazonica [FLAC]\08 - Prayer For The Trees.wav
Pre-gap length 0:00:02.09
Peak level 100.0 %
Track quality 100.0 %
Test CRC 8C911523
Copy CRC 8C911523
Accurately ripped (confidence 1) [EA6CE13B]
Copy OK
Track 9
Filename K:\EAC rips\Merl Saunders - 1997 - Fiesta Amazonica [FLAC]\09 - Ayahuasca Zone.wav
Pre-gap length 0:00:03.53
Peak level 100.0 %
Track quality 100.0 %
Test CRC 7FB169F4
Copy CRC 7FB169F4
Accurately ripped (confidence 1) [0A6084A3]
Copy OK
All tracks accurately ripped
No errors occurred
End of status report
 
Содержание индексной карты (.CUE)
REM GENRE Funk
REM DATE 1997
REM DISCID 7B108D09
REM COMMENT "ExactAudioCopy v0.99pb4"
PERFORMER "Merl Saunders"
TITLE "Fiesta Amazonica"
FILE "01 - Forest Dance.wav" WAVE
TRACK 01 AUDIO
TITLE "Forest Dance"
PERFORMER "Merl Saunders"
INDEX 01 00:00:00
TRACK 02 AUDIO
TITLE "Fiesta Amazonica"
PERFORMER "Merl Saunders"
INDEX 00 07:42:30
FILE "02 - Fiesta Amazonica.wav" WAVE
INDEX 01 00:00:00
TRACK 03 AUDIO
TITLE "Nostalgia for Jerome"
PERFORMER "Merl Saunders"
INDEX 00 08:33:47
FILE "03 - Nostalgia for Jerome.wav" WAVE
INDEX 01 00:00:00
TRACK 04 AUDIO
TITLE "Child's Play"
PERFORMER "Merl Saunders"
INDEX 00 05:36:60
FILE "04 - Child's Play.wav" WAVE
INDEX 01 00:00:00
TRACK 05 AUDIO
TITLE "Walk the River"
PERFORMER "Merl Saunders"
INDEX 00 07:00:27
FILE "05 - Walk the River.wav" WAVE
INDEX 01 00:00:00
FILE "06 - Dance of the Pink Dolphins.wav" WAVE
TRACK 06 AUDIO
TITLE "Dance of the Pink Dolphins"
PERFORMER "Merl Saunders"
INDEX 01 00:00:00
TRACK 07 AUDIO
TITLE "Eduardo (Can You Hear Me Calling)"
PERFORMER "Merl Saunders"
INDEX 00 09:55:02
FILE "07 - Eduardo (Can You Hear Me Calling).wav" WAVE
INDEX 01 00:00:00
TRACK 08 AUDIO
TITLE "Prayer for the Trees"
PERFORMER "Merl Saunders"
INDEX 00 08:34:20
FILE "08 - Prayer for the Trees.wav" WAVE
INDEX 01 00:00:00
TRACK 09 AUDIO
TITLE "Ayahuasca Zone"
PERFORMER "Merl Saunders"
INDEX 00 08:25:03
FILE "09 - Ayahuasca Zone.wav" WAVE
INDEX 01 00:00:00
 
Отчет CUETools
[CUETools log; Date: 24.05.2018 0:55:16; Version: 2.1.5]
[CTDB TOCID: _Xr18jPqeSCkaTQ7Al85fTETWFw-] found.
Track | CTDB Status
1 | (5/5) Accurately ripped
2 | (5/5) Accurately ripped
3 | (5/5) Accurately ripped
4 | (5/5) Accurately ripped
5 | (5/5) Accurately ripped
6 | (5/5) Accurately ripped
7 | (5/5) Accurately ripped
8 | (5/5) Accurately ripped
9 | (5/5) Accurately ripped
[AccurateRip ID: 00181421-00b18e0c-7b108d09] found.
Track [ CRC | V2 ] Status
01 [9a618250|983cb97b] (2+0/2) Accurately ripped
02 [1f3fcbd5|9cf2de30] (2+0/2) Accurately ripped
03 [9c92f504|187ee26e] (2+0/2) Accurately ripped
04 [9e9e1efe|3e51ff47] (2+0/2) Accurately ripped
05 [a6d3def1|c1eb81be] (2+0/2) Accurately ripped
06 [ecefe5c8|17336f4a] (2+0/2) Accurately ripped
07 [13b2dc72|b9a5b97f] (2+0/2) Accurately ripped
08 [ea6ce13b|c788d692] (2+0/2) Accurately ripped
09 [0a6084a3|7a9db0f4] (2+0/2) Accurately ripped
Track Peak [ CRC32 ] [W/O NULL] [ LOG ]
-- 100,0 [BA13B13F] [F83AF8AA]
01 99,9 [6F2B1C5E] [736F9C13] CRC32
02 99,9 [22467679] [754B460C] CRC32
03 100,0 [AEA3D595] [F963F61D] CRC32
04 100,0 [5B79DB43] [F15449B8] CRC32
05 100,0 [B5C320EA] [902A4310] CRC32
06 100,0 [78269019] [407887B6] CRC32
07 100,0 [7B80ED76] [6A40B6F1] CRC32
08 100,0 [8C911523] [7AA326B3] CRC32
09 100,0 [7FB169F4] [9405B181] CRC32
 
AllMusic Review by Curtis Zimmermann
There are few musical boundaries that pianist Merl Saunders hasn't ventured into. For Fiesta Amazonica, a follow up to his classic Blues for the Rainforest, he continues to blend of world beat, new age, blues, funk, and jazz. Guests on the recording include Jerry Garcia, Steve Kimmock, Rob Wasserman, Bob Weir, and Vince Welnick. Songs on this album were inspired by a trip Saunders took to visit the rainforests in South America. The title track attempts to capture the energy of an Amazon tribal celebration. It features a brilliant guitar solo by Zero and Other Ones guitarist Steve Kimmock. Perhaps the most intense tune, "Ayahuasca Zone" was based on a ceremony in which rainforest natives ingested a powerful psychedelic drug. An eclectic and dissonant tune, it brings the wild ceremony to life. With its strange directions and brilliant songwriting, this album is a testament to Saunders' long and diverse career.
Приватный:
Нет (DHT включён)
Размер:
499.79 Мб (524,063,544 байт) » файлов: 17
Участники:
0 раздают, 0 качают (0 участников всего)
Внешние участники:
1 раздают, 0 качают (1 участников всего) [ Обновить ]
No seeders - write a personal message to user M0p94ok. Нет сидеров - пишите личное сообщение пользователю M0p94ok.
15:53
80
Нет комментариев. Ваш будет первым!