Поиск

(Funk, Soul) [CD] Merl Saunders, Jerry Garcia, John Kahn, Bill Vitt - Live at Keystone, Vol. II - 1973 (1988), FLAC (tracks+.cue), lossless

(Funk, Soul) [CD] Merl Saunders, Jerry Garcia, John Kahn, Bill Vitt - Live at Keystone, Vol. II - 1973 (1988), FLAC (tracks+.cue), lossless
Треклист:
Merl Saunders, Jerry Garcia, John Kahn, Bill Vitt - Live at Keystone, Vol. II
Жанр: Funk, Soul
Носитель: CD
Страна-производитель диска (релиза): США
Год издания: 1988
Издатель (лейбл): Fantasy
Номер по каталогу: FCD-7702-2
Аудиокодек: FLAC (*.flac)
Тип рипа: tracks+.cue
Битрейт аудио: lossless
Продолжительность: 55:28
Источник (релизер): meddler
Наличие сканов в содержимом раздачи: нет
Треклист:
01. That's All Right, Mama (Crudup) - 4:20
02. My Funny Valentine (Rodgers-Hart) - 18:11
03. Someday Baby (Hopkins) - 10:16
04. Like a Road Leading Home (Penn-Nix) - 11:04
05. Mystery Train (Parker-Phillips) - 11:37
Состав:
Merl Saunders - keyboards
Jerry Garcia - guitar, vocals
John Kahn - bass
Bill Vitt - drums
Recorded live at Keystone, Berkeley, CA in July 1973.
 
Лог создания рипа
X Lossless Decoder version 20161007 (149.3)
XLD extraction logfile from 2017-02-05 17:01:49 -0500
Jerry Garcia & Merl Saunders / Live at Keystone, Vol. 2 [Rmd 1988]
Used drive : HL-DT-ST DVDRW GX40N (revision RQ00)
Media type : Pressed CD
Ripper mode : XLD Secure Ripper
Disable audio cache : OK for the drive with a cache less than 1375KiB
Make use of C2 pointers : NO
Read offset correction : 6
Max retry count : 20
Gap status : Analyzed, Appended (except HTOA)
TOC of the extracted CD
Track | Start | Length | Start sector | End sector
---------------------------------------------------------
1 | 00:00:00 | 04:19:50 | 0 | 19474
2 | 04:19:50 | 18:11:17 | 19475 | 101316
3 | 22:30:67 | 10:15:60 | 101317 | 147501
4 | 32:46:52 | 11:03:63 | 147502 | 197289
5 | 43:50:40 | 11:37:27 | 197290 | 249591
List of alternate offset correction values
# | Absolute | Relative | Confidence
------------------------------------------
1 | 956 | 950 | 27
2 | 292 | 286 | 10
3 | -792 | -798 | 2
AccurateRip Summary (DiscID: 000ae9a8-00342350-3b0cff05)
Track 01 : OK (v1+v2, confidence 8/45)
Track 02 : OK (v1+v2, confidence 8/46)
Track 03 : OK (v1+v2, confidence 8/43)
Track 04 : OK (v1+v2, confidence 8/46)
Track 05 : OK (v1+v2, confidence 9/45)
->All tracks accurately ripped.
All Tracks
Album gain : -1.62 dB
Peak : 0.974030
Statistics
Read error : 0
Jitter error (maybe fixed) : 0
Retry sector count : 0
Damaged sector count : 0
Track 01
Filename : /Users/theowner/Desktop/Jerry Garcia & Merl Saunders - Live at Keystone, Vol. 2 [Rmd 1988] (1973) [FLAC]/01 - Jerry Garcia & Merl Saunders - That's All Right, Mama.flac
Pre-gap length : 00:02:00
Track gain : -3.34 dB
Peak : 0.974030
CRC32 hash (test run) : 18C75719
CRC32 hash : 18C75719
CRC32 hash (skip zero) : 5BF75B9A
AccurateRip v1 signature : 3CA25965
AccurateRip v2 signature : BA7DCC18
->Accurately ripped (v1+v2, confidence 5+3/45)
Statistics
Read error : 0
Jitter error (maybe fixed) : 0
Retry sector count : 0
Damaged sector count : 0
Track 02
Filename : /Users/theowner/Desktop/Jerry Garcia & Merl Saunders - Live at Keystone, Vol. 2 [Rmd 1988] (1973) [FLAC]/02 - Jerry Garcia & Merl Saunders - My Funny Valentine.flac
Pre-gap length : 00:01:30
Track gain : 0.99 dB
Peak : 0.670319
CRC32 hash (test run) : AA304DC2
CRC32 hash : AA304DC2
CRC32 hash (skip zero) : 9CA88F16
AccurateRip v1 signature : 2AEAD70E
AccurateRip v2 signature : 1DBD2A3A
->Accurately ripped (v1+v2, confidence 5+3/46)
Statistics
Read error : 0
Jitter error (maybe fixed) : 0
Retry sector count : 0
Damaged sector count : 0
Track 03
Filename : /Users/theowner/Desktop/Jerry Garcia & Merl Saunders - Live at Keystone, Vol. 2 [Rmd 1988] (1973) [FLAC]/03 - Jerry Garcia & Merl Saunders - Someday Baby.flac
Pre-gap length : 00:00:47
Track gain : -2.47 dB
Peak : 0.963043
CRC32 hash (test run) : C8C434F8
CRC32 hash : C8C434F8
CRC32 hash (skip zero) : 81FBB6F8
AccurateRip v1 signature : 39D86875
AccurateRip v2 signature : 645F46B6
->Accurately ripped (v1+v2, confidence 5+3/43)
Statistics
Read error : 0
Jitter error (maybe fixed) : 0
Retry sector count : 0
Damaged sector count : 0
Track 04
Filename : /Users/theowner/Desktop/Jerry Garcia & Merl Saunders - Live at Keystone, Vol. 2 [Rmd 1988] (1973) [FLAC]/04 - Jerry Garcia & Merl Saunders - Like a Road Leading Home.flac
Track gain : -0.63 dB
Peak : 0.873535
CRC32 hash (test run) : 6DB1DA16
CRC32 hash : 6DB1DA16
CRC32 hash (skip zero) : A2F69A9A
AccurateRip v1 signature : 7A33C279
AccurateRip v2 signature : 718106A3
->Accurately ripped (v1+v2, confidence 5+3/46)
Statistics
Read error : 0
Jitter error (maybe fixed) : 0
Retry sector count : 0
Damaged sector count : 0
Track 05
Filename : /Users/theowner/Desktop/Jerry Garcia & Merl Saunders - Live at Keystone, Vol. 2 [Rmd 1988] (1973) [FLAC]/05 - Jerry Garcia & Merl Saunders - Mystery Train.flac
Pre-gap length : 00:01:63
Track gain : -1.84 dB
Peak : 0.907043
CRC32 hash (test run) : 83264C61
CRC32 hash : 83264C61
CRC32 hash (skip zero) : 9109E3B0
AccurateRip v1 signature : F877BC27
AccurateRip v2 signature : F62B0674
->Accurately ripped (v1+v2, confidence 6+3/45)
Statistics
Read error : 0
Jitter error (maybe fixed) : 0
Retry sector count : 0
Damaged sector count : 0
No errors occurred
End of status report
-----BEGIN XLD SIGNATURE-----
gBzYfMsAVsmvWp7rsu24oIqB2lW2AiHstmJZtD2432zXYZHaIDm_4xNKHPx_8kPnlnbE6FYj_8bwGtjZecCTPyeTtu3MPsxkk6NxXrG
-----END XLD SIGNATURE-----
 
Содержание индексной карты (.CUE)
TITLE "Live at Keystone, Vol. II"
PERFORMER "Merl Saunders, Jerry Garcia, John Kahn, Bill Vitt"
REM GENRE "Jazz"
REM DATE "1973"
REM DISCID 3B0CFF05
REM REPLAYGAIN_ALBUM_GAIN -1.62 dB
REM REPLAYGAIN_ALBUM_PEAK 0.974030
FILE "01 - That's All Right, Mama.flac" WAVE
TRACK 01 AUDIO
TITLE "That's All Right, Mama"
REM REPLAYGAIN_TRACK_GAIN -3.34 dB
REM REPLAYGAIN_TRACK_PEAK 0.974030
INDEX 01 00:00:00
TRACK 02 AUDIO
TITLE "My Funny Valentine"
REM REPLAYGAIN_TRACK_GAIN 0.99 dB
REM REPLAYGAIN_TRACK_PEAK 0.670319
INDEX 00 04:18:20
FILE "02 - My Funny Valentine.flac" WAVE
INDEX 01 00:00:00
TRACK 03 AUDIO
TITLE "Someday Baby"
REM REPLAYGAIN_TRACK_GAIN -2.47 dB
REM REPLAYGAIN_TRACK_PEAK 0.963043
INDEX 00 18:10:45
FILE "03 - Someday Baby.flac" WAVE
INDEX 01 00:00:00
FILE "04 - Like a Road Leading Home.flac" WAVE
TRACK 04 AUDIO
TITLE "Like a Road Leading Home"
REM REPLAYGAIN_TRACK_GAIN -0.63 dB
REM REPLAYGAIN_TRACK_PEAK 0.873535
INDEX 01 00:00:00
TRACK 05 AUDIO
TITLE "Mystery Train"
REM REPLAYGAIN_TRACK_GAIN -1.84 dB
REM REPLAYGAIN_TRACK_PEAK 0.907043
INDEX 00 11:02:00
FILE "05 - Mystery Train.flac" WAVE
INDEX 01 00:00:00
 
Отчет CUETools
[CUETools log; Date: 24.05.2018 1:09:58; Version: 2.1.5]
[CTDB TOCID: KscvwSQhhigis91tftlrbcPJW1E-] found.
Track | CTDB Status
1 | (49/49) Accurately ripped
2 | (49/49) Accurately ripped
3 | (49/49) Accurately ripped
4 | (49/49) Accurately ripped
5 | (49/49) Accurately ripped
[AccurateRip ID: 000ae9a8-00342350-3b0cff05] found.
Track [ CRC | V2 ] Status
01 [3ca25965|ba7dcc18] (05+06/51) Accurately ripped
02 [2aead70e|1dbd2a3a] (05+06/52) Accurately ripped
03 [39d86875|645f46b6] (05+06/49) Accurately ripped
04 [7a33c279|718106a3] (05+06/51) Accurately ripped
05 [f877bc27|f62b0674] (06+06/50) Accurately ripped
Offsetted by -798:
01 [99e8d064] (02/51) Accurately ripped
02 [8cfd1ba3] (02/52) Accurately ripped
03 [8150779c] (02/49) Accurately ripped
04 [bc12a324] (02/51) Accurately ripped
05 [cd412ee1] (02/50) Accurately ripped
Offsetted by 286:
01 [1051502f] (03/51) Accurately ripped
02 [72c144fe] (03/52) Accurately ripped
03 [4d10ac59] (03/49) Accurately ripped
04 [7f9bbc85] (04/51) Accurately ripped
05 [5188b5e2] (02/50) Accurately ripped
Offsetted by 950:
01 [ef2fa528] (12/51) Accurately ripped
02 [5deb548c] (12/52) Accurately ripped
03 [01bec7b1] (10/49) Accurately ripped
04 [add6d80d] (11/51) Accurately ripped
05 [e6e19ce4] (11/50) Accurately ripped
Offsetted by -659:
01 [b3a0011f] (00/51) No match (V2 was not tested)
02 [02f6f3cf] (00/52) No match (V2 was not tested)
03 [0b449ab7] (00/49) No match (V2 was not tested)
04 [2c6084c9] (00/51) No match (V2 was not tested)
05 [a75b54d6] (00/50) No match (V2 was not tested)
Track Peak [ CRC32 ] [W/O NULL]
-- 97,4 [4FF09806] [5D492C33]
01 97,4 [18C75719] [5BF75B9A]
02 67,0 [AA304DC2] [9CA88F16]
03 96,3 [C8C434F8] [81FBB6F8]
04 87,3 [6DB1DA16] [A2F69A9A]
05 90,7 [83264C61] [9109E3B0]
 
AllMusic Review by Lindsay Planer
The route that this material took from double-LP form to CD has been spread over a logic-defying series of releases -- many of which (like this one) clock in at under an hour. In essence, these five numbers represent the second disc of the two-record set with the addition of a 1988 remix of "Mystery Train" -- which was not on the LPs or the subsequent Keystone Encores titles. Confused yet? If so, let the music speak for itself as Live at the Keystone is chocked with unquestionably inspired covers that are each respectively extended and collectively improvised by co-instrumental leads Jerry Garcia (guitar/vocals) and Merl Saunders (organ) with Bill Vitt (drums) and John Kahn (bass). This was more or less an ad-hoc configuration, as opposed to the organized touring unit that Garcia developed as the Jerry Garcia Band. From December of 1970 through the spring of 1974 -- prior to the combo evolving into the Legion of Mary -- the guitarist could often be found performing sporadically in and around San Francisco between engagements with the Grateful Dead. The quartet ably fuse rock with jazz and spacey unfettered jams emerging from an eclectic composite from R&B and blues to seminal rock oldies and even popular standards. Compared to his contributions to the Grateful Dead, Garcia seems to invest the time to dig in and explore the melodies thoroughly. The supremely crafted "My Funny Valentine" is much more than a remake, as the entire familiar structure has been gutted and upgraded to a jazzy, intuitive groove. Similarly, "Like a Road Leading Home" goes to a new emotive strata when compared to Albert King's original as the quartet develop an earthier, almost palpable feel that King merely hints at. Stylistically contrary is the frolicking optimistic "That's Alright Mama" with Kahn playfully plunging below Garcia's clear-toned strings. The 'bonus' "Mystery Train" arguably offers up the best example of what a strong sonic bond existed between not only Garcia and Saunders, but also Kahn -- as the trio propel the rhythm into an open exchange of instantaneous ideas. It is no wonder they stayed together through the mid-'70s and then reunited in 1979 for the criminally short-lived outfit Reconstruction. However, these earlier and more intimate recordings from the Keystone provide a glimpse of Garcia's enormously and oft overlooked range as a musician and arranger.
Приватный:
Нет (DHT включён)
Размер:
300.69 Мб (315,294,359 байт) » файлов: 12
Участники:
0 раздают, 0 качают (0 участников всего)
Внешние участники:
2 раздают, 1 качают (3 участников всего) [ Обновить ]
Есть вопросы - пишите личное сообщение пользователю M0p94ok.
15:53
59
Нет комментариев. Ваш будет первым!