Поиск

(Jazz-Rock, Funk, Soul) [CD] Merl Saunders & The Rainforest Band - It's in the Air - 1993, FLAC (tracks+.cue), lossless

(Jazz-Rock, Funk, Soul) [CD] Merl Saunders & The Rainforest Band - It's in the Air - 1993, FLAC (tracks+.cue), lossless
Треклист:
Merl Saunders & The Rainforest Band - It's in the Air
Жанр: Jazz-Rock, Funk, Soul
Носитель: CD
Страна-производитель диска (релиза): США
Год издания: 1993
Издатель (лейбл): Sumertone
Номер по каталогу: 7 29137 21632
Аудиокодек: FLAC (*.flac)
Тип рипа: tracks+.cue
Битрейт аудио: lossless
Продолжительность: 74:20
Источник (релизер): jb1013
Наличие сканов в содержимом раздачи: частично
Треклист:
01. Lovely Night for Dancing (5:15)
02. Play the Paris Blues (Duet with Dr. John) (6:15)
03. Sister Sadie (5:16)
04. Run River Run (5:29)
05. It's in the Air (Konfusion) (6:17)
06. Calypso Blues (4:12)
07. Built for Comfort (4:01)
08. Lay-Back Baby (6:07)
09. San Francisco After Dark (5:23)
10. Left Out in the Cold (5:54)
11. Resurrection Rag (7:37)
12. Mourning Moon (12:34)
 
Лог создания рипа
Exact Audio Copy V1.0 beta 3 from 29. August 2011
EAC extraction logfile from 16. May 2015, 9:02
Merl Saunders / It's In The Air
Used drive : HL-DT-STBD-RE WH10LS30 Adapter: 2 ID: 0
Read mode : Secure
Utilize accurate stream : Yes
Defeat audio cache : Yes
Make use of C2 pointers : No
Read offset correction : 667
Overread into Lead-In and Lead-Out : No
Fill up missing offset samples with silence : Yes
Delete leading and trailing silent blocks : No
Null samples used in CRC calculations : Yes
Used interface : Native Win32 interface for Win NT & 2000
Gap handling : Appended to previous track
Used output format : User Defined Encoder
Selected bitrate : 1024 kBit/s
Quality : High
Add ID3 tag : No
Command line compressor : C:\Program Files (x86)\FLAC\flac.exe
Additional command line options : -8 -V -T "ARTIST=%artist%" -T "TITLE=%title%" -T "ALBUM=%albumtitle%" -T "DATE=%year%" -T "TRACKNUMBER=%tracknr%" -T "GENRE=%genre%" -T "PERFORMER=%albuminterpret%" -T "COMPOSER=%composer%" %haslyrics%--tag-from-file=LYRICS="%lyricsfile%"%haslyrics% -T "ALBUMARTIST=%albumartist%" -T "DISCNUMBER=%cdnumber%" -T "TOTALDISCS=%totalcds%" -T "TOTALTRACKS=%numtracks%" -T "COMMENT=%comment%" %source% -o %dest%
TOC of the extracted CD
Track | Start | Length | Start sector | End sector
---------------------------------------------------------
1 | 0:00.00 | 5:14.60 | 0 | 23609
2 | 5:14.60 | 6:15.10 | 23610 | 51744
3 | 11:29.70 | 5:15.42 | 51745 | 75411
4 | 16:45.37 | 5:28.58 | 75412 | 100069
5 | 22:14.20 | 6:16.40 | 100070 | 128309
6 | 28:30.60 | 4:12.00 | 128310 | 147209
7 | 32:42.60 | 4:01.30 | 147210 | 165314
8 | 36:44.15 | 6:06.45 | 165315 | 192809
9 | 42:50.60 | 5:23.20 | 192810 | 217054
10 | 48:14.05 | 5:54.22 | 217055 | 243626
11 | 54:08.27 | 7:36.53 | 243627 | 277879
12 | 61:45.05 | 12:33.65 | 277880 | 334419
Track 1
Filename E:\EAC Rips\Merl Saunders - It's In The Air (1993) [FLAC]\01 - Lovely Night For Dancing.wav
Pre-gap length 0:00:02.00
Peak level 100.0 %
Extraction speed 1.3 X
Track quality 100.0 %
Test CRC 09124D70
Copy CRC 09124D70
Cannot be verified as accurate (confidence 2) [049C77F3], AccurateRip returned [E7BA936F] (AR v2)
Copy OK
Track 2
Filename E:\EAC Rips\Merl Saunders - It's In The Air (1993) [FLAC]\02 - Play The Paris Blues.wav
Pre-gap length 0:00:00.53
Peak level 100.0 %
Extraction speed 1.4 X
Track quality 99.9 %
Test CRC 941EB0C9
Copy CRC 941EB0C9
Cannot be verified as accurate (confidence 2) [D6F619D7], AccurateRip returned [72F43ED2] (AR v2)
Copy OK
Track 3
Filename E:\EAC Rips\Merl Saunders - It's In The Air (1993) [FLAC]\03 - Sister Sadie.wav
Peak level 100.0 %
Extraction speed 1.6 X
Track quality 100.0 %
Test CRC D8C6C9D5
Copy CRC D8C6C9D5
Cannot be verified as accurate (confidence 2) [9973263E], AccurateRip returned [599C226D] (AR v2)
Copy OK
Track 4
Filename E:\EAC Rips\Merl Saunders - It's In The Air (1993) [FLAC]\04 - Run River Run.wav
Peak level 100.0 %
Extraction speed 1.8 X
Track quality 100.0 %
Test CRC BA3C3DC0
Copy CRC BA3C3DC0
Cannot be verified as accurate (confidence 2) [58FC589D], AccurateRip returned [D6601814] (AR v2)
Copy OK
Track 5
Filename E:\EAC Rips\Merl Saunders - It's In The Air (1993) [FLAC]\05 - It's In The Air (Konfusion).wav
Pre-gap length 0:00:03.61
Peak level 100.0 %
Extraction speed 2.0 X
Track quality 100.0 %
Test CRC 178944BD
Copy CRC 178944BD
Cannot be verified as accurate (confidence 2) [A7A432F6], AccurateRip returned [C57F7392] (AR v2)
Copy OK
Track 6
Filename E:\EAC Rips\Merl Saunders - It's In The Air (1993) [FLAC]\06 - Calypso Blues.wav
Pre-gap length 0:00:02.50
Peak level 100.0 %
Extraction speed 1.8 X
Track quality 99.9 %
Test CRC D4D29548
Copy CRC D4D29548
Cannot be verified as accurate (confidence 2) [06D62D5C], AccurateRip returned [03EBC768] (AR v2)
Copy OK
Track 7
Filename E:\EAC Rips\Merl Saunders - It's In The Air (1993) [FLAC]\07 - Built For Comfort.wav
Pre-gap length 0:00:02.53
Peak level 100.0 %
Extraction speed 2.0 X
Track quality 100.0 %
Test CRC FF6A87DF
Copy CRC FF6A87DF
Cannot be verified as accurate (confidence 2) [9201AE22], AccurateRip returned [10C687F1] (AR v2)
Copy OK
Track 8
Filename E:\EAC Rips\Merl Saunders - It's In The Air (1993) [FLAC]\08 - Lay-Back Baby.wav
Pre-gap length 0:00:01.33
Peak level 100.0 %
Extraction speed 2.3 X
Track quality 100.0 %
Test CRC 3D5A6472
Copy CRC 3D5A6472
Cannot be verified as accurate (confidence 1) [923754FA], AccurateRip returned [A8D4F5D6] (AR v2)
Copy OK
Track 9
Filename E:\EAC Rips\Merl Saunders - It's In The Air (1993) [FLAC]\09 - San Francisco After Dark.wav
Pre-gap length 0:00:03.66
Peak level 100.0 %
Extraction speed 2.3 X
Track quality 100.0 %
Test CRC BD827FCD
Copy CRC BD827FCD
Cannot be verified as accurate (confidence 2) [FA5EE4B3], AccurateRip returned [8714B6EC] (AR v2)
Copy OK
Track 10
Filename E:\EAC Rips\Merl Saunders - It's In The Air (1993) [FLAC]\10 - Left Out In The Cold.wav
Pre-gap length 0:00:00.57
Peak level 100.0 %
Extraction speed 2.5 X
Track quality 100.0 %
Test CRC F290014F
Copy CRC F290014F
Cannot be verified as accurate (confidence 2) [A5AD08DB], AccurateRip returned [DF94E258] (AR v2)
Copy OK
Track 11
Filename E:\EAC Rips\Merl Saunders - It's In The Air (1993) [FLAC]\11 - Resurrection Rag.wav
Pre-gap length 0:00:02.33
Peak level 100.0 %
Extraction speed 2.6 X
Track quality 100.0 %
Test CRC DF2A2083
Copy CRC DF2A2083
Cannot be verified as accurate (confidence 2) [6F11BDD2], AccurateRip returned [D41CFE2F] (AR v2)
Copy OK
Track 12
Filename E:\EAC Rips\Merl Saunders - It's In The Air (1993) [FLAC]\12 - Mourning Moon.wav
Pre-gap length 0:00:02.64
Peak level 100.0 %
Extraction speed 2.9 X
Track quality 100.0 %
Test CRC 4ED40987
Copy CRC 4ED40987
Accurately ripped (confidence 1) [726D0719] (AR v2)
Copy OK
1 track(s) accurately ripped
11 track(s) could not be verified as accurate
Some tracks could not be verified as accurate
No errors occurred
End of status report
==== Log checksum B4C7344384FB80AFC97CA4F9B66378A56B046BBC7C0C650950798F179DC0C73A ====
 
Содержание индексной карты (.CUE)
REM GENRE Jazz
REM DATE 1993
REM DISCID 9E116A0C
REM COMMENT "ExactAudioCopy v1.0b3"
PERFORMER "Merl Saunders & The Rainforest Band"
TITLE "It's in the Air"
FILE "01 - Lovely Night for Dancing.wav" WAVE
TRACK 01 AUDIO
TITLE "Lovely Night for Dancing"
PERFORMER "Merl Saunders & The Rainforest Band"
INDEX 01 00:00:00
TRACK 02 AUDIO
TITLE "Play the Paris Blues (Duet with Dr. John)"
PERFORMER "Merl Saunders & The Rainforest Band"
INDEX 00 05:14:20
FILE "02 - Play the Paris Blues (Duet with Dr. John).wav" WAVE
INDEX 01 00:00:00
FILE "03 - Sister Sadie.wav" WAVE
TRACK 03 AUDIO
TITLE "Sister Sadie"
PERFORMER "Merl Saunders & The Rainforest Band"
INDEX 01 00:00:00
FILE "04 - Run River Run.wav" WAVE
TRACK 04 AUDIO
TITLE "Run River Run"
PERFORMER "Merl Saunders & The Rainforest Band"
INDEX 01 00:00:00
TRACK 05 AUDIO
TITLE "It's in the Air (Konfusion)"
PERFORMER "Merl Saunders & The Rainforest Band"
INDEX 00 05:25:12
FILE "05 - It's in the Air (Konfusion).wav" WAVE
INDEX 01 00:00:00
TRACK 06 AUDIO
TITLE "Calypso Blues"
PERFORMER "Merl Saunders & The Rainforest Band"
INDEX 00 06:14:02
FILE "06 - Calypso Blues.wav" WAVE
INDEX 01 00:00:00
TRACK 07 AUDIO
TITLE "Built for Comfort"
PERFORMER "Merl Saunders & The Rainforest Band"
INDEX 00 04:09:35
FILE "07 - Built for Comfort.wav" WAVE
INDEX 01 00:00:00
TRACK 08 AUDIO
TITLE "Lay-Back Baby"
PERFORMER "Merl Saunders & The Rainforest Band"
INDEX 00 04:00:05
FILE "08 - Lay-Back Baby.wav" WAVE
INDEX 01 00:00:00
TRACK 09 AUDIO
TITLE "San Francisco After Dark"
PERFORMER "Merl Saunders & The Rainforest Band"
INDEX 00 06:02:70
FILE "09 - San Francisco After Dark.wav" WAVE
INDEX 01 00:00:00
TRACK 10 AUDIO
TITLE "Left Out in the Cold"
PERFORMER "Merl Saunders & The Rainforest Band"
INDEX 00 05:22:52
FILE "10 - Left Out in the Cold.wav" WAVE
INDEX 01 00:00:00
TRACK 11 AUDIO
TITLE "Resurrection Rag"
PERFORMER "Merl Saunders & The Rainforest Band"
INDEX 00 05:51:72
FILE "11 - Resurrection Rag.wav" WAVE
INDEX 01 00:00:00
TRACK 12 AUDIO
TITLE "Mourning Moon"
PERFORMER "Merl Saunders & The Rainforest Band"
INDEX 00 07:34:05
FILE "12 - Mourning Moon.wav" WAVE
INDEX 01 00:00:00
 
Отчет CUETools
[CUETools log; Date: 24.05.2018 0:37:19; Version: 2.1.5]
[CTDB TOCID: sHXX8V0sxNIYaWCyO90utoKtQJM-] found.
Track | CTDB Status
1 | (5/5) Accurately ripped
2 | (5/5) Accurately ripped
3 | (5/5) Accurately ripped
4 | (5/5) Accurately ripped
5 | (5/5) Accurately ripped
6 | (5/5) Accurately ripped
7 | (5/5) Accurately ripped
8 | (5/5) Accurately ripped
9 | (5/5) Accurately ripped
10 | (5/5) Accurately ripped
11 | (5/5) Accurately ripped
12 | (5/5) Accurately ripped
[AccurateRip ID: 001dde58-0118afb5-9e116a0c] found.
Track [ CRC | V2 ] Status
01 [4a8ae7ef|049c77f3] (0+2/6) Accurately ripped
02 [37d0e15d|d6f619d7] (0+2/6) Accurately ripped
03 [9bd9e053|9973263e] (0+2/6) Accurately ripped
04 [80c54914|58fc589d] (0+2/6) Accurately ripped
05 [9edb8027|a7a432f6] (0+2/6) Accurately ripped
06 [4e5ae2fd|06d62d5c] (0+2/6) Accurately ripped
07 [5db64667|9201ae22] (0+2/6) Accurately ripped
08 [1bbfe6b1|923754fa] (0+0/3) No match
09 [cae343ed|fa5ee4b3] (0+2/6) Accurately ripped
10 [286109a6|a5ad08db] (0+0/4) No match
11 [ec29c34d|6f11bdd2] (0+2/6) Accurately ripped
12 [a846f2bf|726d0719] (0+2/5) Accurately ripped
Offsetted by -450:
01 [735a9d87] (0/6) No match (V2 was not tested)
02 [f854a7ef] (0/6) No match (V2 was not tested)
03 [a14f6e8b] (0/6) No match (V2 was not tested)
04 [3e5ffc16] (0/6) No match (V2 was not tested)
05 [e110feea] (0/6) No match (V2 was not tested)
06 [bfa82792] (0/6) No match (V2 was not tested)
07 [4d7e89bd] (0/6) No match (V2 was not tested)
08 [f9f67115] (0/3) No match (V2 was not tested)
09 [997279db] (0/6) No match (V2 was not tested)
10 [8f4fc001] (0/4) No match (V2 was not tested)
11 [4e116e74] (0/6) No match (V2 was not tested)
12 [2f68753c] (0/5) No match (V2 was not tested)
Track Peak [ CRC32 ] [W/O NULL] [ LOG ]
-- 100,0 [82168810] [1EE69963]
01 100,0 [09124D70] [443A65D6] CRC32
02 100,0 [941EB0C9] [8218103E] CRC32
03 100,0 [D8C6C9D5] [171BB577] CRC32
04 100,0 [BA3C3DC0] [CAEF22A1] CRC32
05 100,0 [178944BD] [D07A900B] CRC32
06 100,0 [D4D29548] [9AE71188] CRC32
07 100,0 [FF6A87DF] [054116F6] CRC32
08 100,0 [3D5A6472] [BC2B47FE] CRC32
09 100,0 [BD827FCD] [F56B1772] CRC32
10 100,0 [F290014F] [52261935] CRC32
11 100,0 [DF2A2083] [C65AC323] CRC32
12 100,0 [4ED40987] [7FF7097E] CRC32
 
AllMusic Review by Joe Viglione
Smooth playing that is so perfect. Merl Saunders & the Rain Forest Band have crafted an album that you can play anywhere and anytime for any mood. There is no dazzling guitar, no over the top vocal histrionics, just pure musicianship that is topnotch and welded into a solid groove. The songs on It's in the Air average about five minutes each in length, except for "Resurrection Rag," which is seven plus, and the 12th and final track, "Mourning Moon," which was written by guitarist Michael Hinton and clocks in at a dozen minutes. The Jon Selvin liner notes written in January of 1993 give real and important insight into this music, revolving around "Jessica," the 30-year-old Hammond B-3 organ owned and played by Saunders. Whether covering what the liners call an "obscure" Bill Withers tune, or adding the immense Dr. John to "Play the Paris Blues" (the eternal Mac Rebennack on lead vocals and Yamaha acoustic piano), the album has a sweet consistency and solid dynamic, expressed so perfectly in "Resurrection Rag." Play the CD into the ground and it keeps breathing new life into the material -- something new is revealed with each spin. It's in the Air is a remarkable record that is hard to get a handle on, and maybe that's part of its secret and its magic -- that, after years of performing, these musicians have been able to slip something in between the grooves that makes the listener keep going back. It's actually more dense and complex than the simple sounds you hear on the surface. Maybe there's some voodoo coming out of the rain forest, because this one-hour-and-14-plus minute record is simply a tremendous work of art.
Приватный:
Нет (DHT включён)
Размер:
495.46 Мб (519,529,869 байт) » файлов: 20
Участники:
0 раздают, 0 качают (0 участников всего)
Внешние участники:
3 раздают, 1 качают (4 участников всего) [ Обновить ]
Есть вопросы - пишите личное сообщение пользователю M0p94ok.
15:52
57
Нет комментариев. Ваш будет первым!