Поиск

(Funk, Soul, Rhythm & Blues) [CD] Barry White - Icon - 2010 (Compilation), FLAC (image+.cue), lossless

(Funk, Soul, Rhythm & Blues) [CD] Barry White - Icon - 2010 (Compilation), FLAC (image+.cue), lossless
Треклист:
Barry White / Icon
Жанр: Funk, Soul, Rhythm & Blues
Носитель: CD
Страна-производитель диска (релиза): EU
Год издания: 2010
Издатель (лейбл): A&M Records, Mercury
Номер по каталогу: 0602527472508
Аудиокодек: FLAC (*.flac)
Тип рипа: image+.cue
Битрейт аудио: lossless
Продолжительность: 00:50:08
Источник (релизер): London
Наличие сканов в содержимом раздачи: да
Треклист:
01. Love's Theme
02. Can't Get Enough Of Your Love, Babe
03. You're The First, The Last, My Everything
04. Honey Please, Can't Ya See
05. Never, Never Gonna Give Ya Up
06. I'm Gonna Love You Just A Little More, Baby
07. It's Ecstasy When You Lay Down Next To Me
08. I'm Qualified To Satisfy You
09. Sha La La Means I Love You
10. Let The Music Play
11. Sho' You Right
12. Practice What You Preach
 
Лог создания рипа
Exact Audio Copy V1.3 from 2. September 2016
EAC extraction logfile from 2. August 2017, 13:56
Barry White / Icon
Used drive : ATAPI iHAS122 C Adapter: 1 ID: 0
Read mode : Secure
Utilize accurate stream : Yes
Defeat audio cache : Yes
Make use of C2 pointers : No
Read offset correction : 6
Overread into Lead-In and Lead-Out : No
Fill up missing offset samples with silence : Yes
Delete leading and trailing silent blocks : No
Null samples used in CRC calculations : Yes
Used interface : Native Win32 interface for Win NT & 2000
Used output format : Internal WAV Routines
Sample format : 44.100 Hz; 16 Bit; Stereo
TOC of the extracted CD
Track | Start | Length | Start sector | End sector
---------------------------------------------------------
1 | 0:00.00 | 4:07.50 | 0 | 18574
2 | 4:07.50 | 3:50.11 | 18575 | 35835
3 | 7:57.61 | 4:33.55 | 35836 | 56365
4 | 12:31.41 | 3:15.52 | 56366 | 71042
5 | 15:47.18 | 4:01.26 | 71043 | 89143
6 | 19:48.44 | 4:10.08 | 89144 | 107901
7 | 23:58.52 | 3:23.60 | 107902 | 123186
8 | 27:22.37 | 3:06.35 | 123187 | 137171
9 | 30:28.72 | 7:30.67 | 137172 | 170988
10 | 37:59.64 | 4:15.20 | 170989 | 190133
11 | 42:15.09 | 3:58.62 | 190134 | 208045
12 | 46:13.71 | 3:54.09 | 208046 | 225604
Range status and errors
Selected range
Filename C:\Users\London\Desktop\Barry White - Icon.wav
Peak level 100.0 %
Extraction speed 8.2 X
Range quality 100.0 %
Test CRC EC82FE1A
Copy CRC EC82FE1A
Copy OK
No errors occurred
AccurateRip summary
Track 1 accurately ripped (confidence 13) [492122CB] (AR v2)
Track 2 accurately ripped (confidence 13) [B7B5C2AE] (AR v2)
Track 3 accurately ripped (confidence 13) [5B75F9B3] (AR v2)
Track 4 accurately ripped (confidence 13) [C0A8A55F] (AR v2)
Track 5 accurately ripped (confidence 13) [D6E34AA2] (AR v2)
Track 6 accurately ripped (confidence 13) [91853149] (AR v2)
Track 7 accurately ripped (confidence 13) [29C6A8BE] (AR v2)
Track 8 accurately ripped (confidence 13) [DDDB3AA7] (AR v2)
Track 9 accurately ripped (confidence 13) [F1FDD9D0] (AR v2)
Track 10 accurately ripped (confidence 13) [9DFF7D6D] (AR v2)
Track 11 accurately ripped (confidence 13) [BD596589] (AR v2)
Track 12 accurately ripped (confidence 13) [FC1A6120] (AR v2)
All tracks accurately ripped
End of status report
---- CUETools DB Plugin V2.1.6
[CTDB TOCID: Cjl0hzM0f0Lhf92shd3ieMU5JCQ-] found
Submit result: Cjl0hzM0f0Lhf92shd3ieMU5JCQ- has been confirmed
Track | CTDB Status
1 | (57/58) Accurately ripped
2 | (58/58) Accurately ripped
3 | (58/58) Accurately ripped
4 | (58/58) Accurately ripped
5 | (58/58) Accurately ripped
6 | (58/58) Accurately ripped
7 | (58/58) Accurately ripped
8 | (58/58) Accurately ripped
9 | (56/58) Accurately ripped
10 | (56/58) Accurately ripped
11 | (58/58) Accurately ripped
12 | (58/58) Accurately ripped
==== Log checksum 25CA8A5B20272AE0189D780EAA1773339458B04FE8FB990F709A615A04C54E01 ====
 
Содержание индексной карты (.CUE)
REM GENRE Soul
REM DATE 2010
REM DISCID AC0BC00C
REM COMMENT ExactAudioCopy v1.3
PERFORMER "Barry White"
TITLE "Icon"
FILE "Barry White - Icon.flac" WAVE
TRACK 01 AUDIO
TITLE "Love's Theme"
INDEX 01 00:00:00
TRACK 02 AUDIO
TITLE "Can't Get Enough of Your Love, Babe"
INDEX 01 04:07:50
TRACK 03 AUDIO
TITLE "You're The First, The Last, My Everything"
INDEX 01 07:57:61
TRACK 04 AUDIO
TITLE "Honey Please, Can't Ya See"
INDEX 00 12:30:38
INDEX 01 12:31:41
TRACK 05 AUDIO
TITLE "Never, Never Gonna Give Ya Up"
INDEX 00 15:46:02
INDEX 01 15:47:18
TRACK 06 AUDIO
TITLE "I'm Gonna Love You Just A Little More, Baby"
INDEX 01 19:48:44
TRACK 07 AUDIO
TITLE "It's Ecstasy When You Lay Down Next To Me"
INDEX 00 23:57:29
INDEX 01 23:58:52
TRACK 08 AUDIO
TITLE "I'm Qualified To Satisfy You"
INDEX 00 27:21:33
INDEX 01 27:22:37
TRACK 09 AUDIO
TITLE "Sha La La Means I Love You"
INDEX 00 30:27:31
INDEX 01 30:28:72
TRACK 10 AUDIO
TITLE "Let The Music Play"
INDEX 00 37:58:56
INDEX 01 37:59:64
TRACK 11 AUDIO
TITLE "Sho' You Right"
INDEX 00 42:13:66
INDEX 01 42:15:09
TRACK 12 AUDIO
TITLE "Practice What You Preach"
INDEX 00 46:12:68
INDEX 01 46:13:71
 
DR Log
foobar2000 1.3.13 / Dynamic Range Meter 1.1.1
log date: 2017-08-02 14:01:45
--------------------------------------------------------------------------------
Analyzed: Barry White / Icon
--------------------------------------------------------------------------------
DR Peak RMS Duration Track
--------------------------------------------------------------------------------
DR10 -0.21 dB -13.04 dB 4:08 01-Love's Theme
DR11 0.00 dB -13.20 dB 3:50 02-Can't Get Enough of Your Love, Babe
DR11 0.00 dB -13.64 dB 4:34 03-You're The First, The Last, My Everything
DR10 0.00 dB -11.20 dB 3:16 04-Honey Please, Can't Ya See
DR10 0.00 dB -11.46 dB 4:01 05-Never, Never Gonna Give Ya Up
DR11 0.00 dB -12.74 dB 4:10 06-I'm Gonna Love You Just A Little More, Baby
DR8 -2.13 dB -12.82 dB 3:24 07-It's Ecstasy When You Lay Down Next To Me
DR10 0.00 dB -11.11 dB 3:06 08-I'm Qualified To Satisfy You
DR12 0.00 dB -13.79 dB 7:31 09-Sha La La Means I Love You
DR11 0.00 dB -12.04 dB 4:15 10-Let The Music Play
DR10 -0.20 dB -12.08 dB 3:59 11-Sho' You Right
DR12 0.00 dB -13.79 dB 3:54 12-Practice What You Preach
--------------------------------------------------------------------------------
Number of tracks: 12
Official DR value: DR11
Samplerate: 44100 Hz
Channels: 2
Bits per sample: 16
Bitrate: 970 kbps
Codec: FLAC
================================================================================
Приватный:
Нет (DHT включён)
Размер:
359.30 Мб (376,754,933 байт) » файлов: 8
Участники:
0 раздают, 0 качают (0 участников всего)
Внешние участники:
2 раздают, 1 качают (3 участников всего) [ Обновить ]
Есть вопросы - пишите личное сообщение пользователю M0p94ok.
14:18
57
Нет комментариев. Ваш будет первым!